Поиск

(World Fusion) Shankar (with Jan Garbarek, Zakir Hussain & Trilok Gurtu) - Song For Everyone {ECM 1286} - 1985, FLAC (tracks+.cue), lossless

(World Fusion) Shankar (with Jan Garbarek, Zakir Hussain & Trilok Gurtu) - Song For Everyone {ECM 1286} - 1985, FLAC (tracks+.cue), lossless
Треклист:
Shankar, Jan Garbarek, Zakir Hussain & Trilok Gurtu - Song For Everyone
Жанр: World Fusion
Год выпуска диска: 1985
Производитель диска: ECM 1286 | 823795-2
Аудио кодек: FLAC
Тип рипа: tracks+.cue
Битрейт аудио: lossless
Продолжительность: 0:51:24
Трэклист:
01. Paper Nut (6:08)
02. I Know (7:39)
03. Watching You (13:17)
04. Conversation (7:55)
05. Song For Everyone (6:28)
06. Let's Go Home (6:32)
07. Rest In Peace (3:24)
Shankar - 10-string double violin, drum machine
Jan Garbarek - soprano and tenor saxophones
Zakir Hussain - tabla, congas
Trilok Gurtu - percussion
За релиз спасибо did
 
EAC Log
Exact Audio Copy V0.99 prebeta 4 from 23. January 2008
EAC extraction logfile from 24. June 2008, 21:53
Shankar, Jan Garbarek, Zakir Hussain & Trilok Gurtu / Song For Everyone
Used drive : LITE-ON DVDRW SOHW-1693S Adapter: 0 ID: 1
Read mode : Secure
Utilize accurate stream : Yes
Defeat audio cache : Yes
Make use of C2 pointers : No
Read offset correction : 12
Overread into Lead-In and Lead-Out : No
Fill up missing offset samples with silence : Yes
Delete leading and trailing silent blocks : No
Null samples used in CRC calculations : Yes
Used interface : Native Win32 interface for Win NT & 2000
Gap handling : Appended to previous track
Used output format : User Defined Encoder
Selected bitrate : 128 kBit/s
Quality : High
Add ID3 tag : No
Command line compressor : C:\Program Files\FLAC\flac.exe
Additional command line options : -V -8 -T "artist=%a" -T "title=%t" -T "album=%g" -T "date=%y" -T "tracknumber=%n" -T "genre=%m" %s
TOC of the extracted CD
Track | Start | Length | Start sector | End sector
---------------------------------------------------------
1 | 0:00.33 | 6:08.22 | 33 | 27654
2 | 6:08.55 | 7:38.70 | 27655 | 62074
3 | 13:47.50 | 13:17.30 | 62075 | 121879
4 | 27:05.05 | 7:55.30 | 121880 | 157534
5 | 35:00.35 | 6:28.20 | 157535 | 186654
6 | 41:28.55 | 6:32.00 | 186655 | 216054
7 | 48:00.55 | 3:24.05 | 216055 | 231359
Track 1
Filename F:\Shankar,Jan Garbarek,Zakir Hussain & Trilok Gurtu - Song For Everyone (1984) [FLAC] (ECM 1286)\01 - Paper Nut.wav
Pre-gap length 0:00:02.44
Peak level 85.7 %
Track quality 100.0 %
Test CRC D6C74237
Copy CRC D6C74237
Copy OK
Track 2
Filename F:\Shankar,Jan Garbarek,Zakir Hussain & Trilok Gurtu - Song For Everyone (1984) [FLAC] (ECM 1286)\02 - I Know.wav
Pre-gap length 0:00:06.86
Peak level 92.7 %
Track quality 99.9 %
Test CRC 66BFE125
Copy CRC 66BFE125
Copy OK
Track 3
Filename F:\Shankar,Jan Garbarek,Zakir Hussain & Trilok Gurtu - Song For Everyone (1984) [FLAC] (ECM 1286)\03 - Watching You.wav
Pre-gap length 0:00:07.06
Peak level 85.5 %
Track quality 100.0 %
Test CRC F2DC91B4
Copy CRC F2DC91B4
Copy OK
Track 4
Filename F:\Shankar,Jan Garbarek,Zakir Hussain & Trilok Gurtu - Song For Everyone (1984) [FLAC] (ECM 1286)\04 - Conversation.wav
Pre-gap length 0:00:08.00
Peak level 90.7 %
Track quality 100.0 %
Test CRC 5D46E6FE
Copy CRC 5D46E6FE
Copy OK
Track 5
Filename F:\Shankar,Jan Garbarek,Zakir Hussain & Trilok Gurtu - Song For Everyone (1984) [FLAC] (ECM 1286)\05 - Song For Everyone.wav
Pre-gap length 0:00:07.29
Peak level 69.4 %
Track quality 100.0 %
Test CRC C6287F76
Copy CRC C6287F76
Copy OK
Track 6
Filename F:\Shankar,Jan Garbarek,Zakir Hussain & Trilok Gurtu - Song For Everyone (1984) [FLAC] (ECM 1286)\06 - Let's Go Home.wav
Pre-gap length 0:00:09.33
Peak level 90.9 %
Track quality 100.0 %
Test CRC 70F17C41
Copy CRC 70F17C41
Copy OK
Track 7
Filename F:\Shankar,Jan Garbarek,Zakir Hussain & Trilok Gurtu - Song For Everyone (1984) [FLAC] (ECM 1286)\07 - Rest In Peace.wav
Pre-gap length 0:00:06.80
Peak level 37.0 %
Track quality 100.0 %
Test CRC 56E05B4D
Copy CRC 56E05B4D
Copy OK
No errors occurred
End of status report
 
Cue
REM GENRE Jazz
REM DATE 1985
REM DISCID 570C0C07
REM COMMENT "ExactAudioCopy v0.99pb4"
PERFORMER "Shankar, Jan Garbarek, Zakir Hussain & Trilok Gurtu"
TITLE "Song For Everyone"
FILE "01 - Paper Nut.wav" WAVE
TRACK 01 AUDIO
TITLE "Paper Nut"
PERFORMER "Shankar, Jan Garbarek, Zakir Hussain & Trilok Gurtu"
PREGAP 00:00:33
INDEX 01 00:00:00
TRACK 02 AUDIO
TITLE "I Know"
PERFORMER "Shankar, Jan Garbarek, Zakir Hussain & Trilok Gurtu"
INDEX 00 06:01:32
FILE "02 - I Know.wav" WAVE
INDEX 01 00:00:00
TRACK 03 AUDIO
TITLE "Watching You"
PERFORMER "Shankar, Jan Garbarek, Zakir Hussain & Trilok Gurtu"
INDEX 00 07:31:65
FILE "03 - Watching You.wav" WAVE
INDEX 01 00:00:00
TRACK 04 AUDIO
TITLE "Conversation"
PERFORMER "Shankar, Jan Garbarek, Zakir Hussain & Trilok Gurtu"
INDEX 00 13:09:30
FILE "04 - Conversation.wav" WAVE
INDEX 01 00:00:00
TRACK 05 AUDIO
TITLE "Song For Everyone"
PERFORMER "Shankar, Jan Garbarek, Zakir Hussain & Trilok Gurtu"
INDEX 00 07:48:08
FILE "05 - Song For Everyone.wav" WAVE
INDEX 01 00:00:00
TRACK 06 AUDIO
TITLE "Let's Go Home"
PERFORMER "Shankar, Jan Garbarek, Zakir Hussain & Trilok Gurtu"
INDEX 00 06:18:70
FILE "06 - Let's Go Home.wav" WAVE
INDEX 01 00:00:00
TRACK 07 AUDIO
TITLE "Rest In Peace"
PERFORMER "Shankar, Jan Garbarek, Zakir Hussain & Trilok Gurtu"
INDEX 00 06:25:15
FILE "07 - Rest In Peace.wav" WAVE
INDEX 01 00:00:00
По всем вопросам пишите личное сообщение пользователю M0p94ok.
11:46
209
Нет комментариев. Ваш будет первым!