Поиск

(World Fusion) Quadro Nuevo - In Concert - 2012, FLAC (image+.cue), lossless

(World Fusion) Quadro Nuevo - In Concert - 2012, FLAC (image+.cue), lossless
♦ Quadro Nuevo - In Concert ♦
Жанр: World Fusion
Страна-производитель диска: Germany
Год издания: 2012
Издатель (лейбл): Fine Music
Аудиокодек: FLAC (*.flac)
Тип рипа: image+.cue
Битрейт аудио: lossless
Продолжительность: 01:13:36
Источник (релизер): cosmos
Наличие сканов в содержимом раздачи: нет
Треклист:
01. Tu vuo `fa` L` Americano [04:30]
02. Giovanni Tranquillo [05:00]
03. Luna Rossa [03:19]
04. Sultana [05:27]
05. Canzone della Strada [05:11]
06. Paroles,Paroles [05:43]
07. Miserlou [05:58]
08. Prinzessin Josefina [06:15]
09. El Choclo [05:59]
10. Susannata [05:38]
11. Cancao do Mar [07:06]
12. Paprika [05:53]
13. Gracias a la Vida [04:20]
14. Fur Mich Soll`s Rote Rosen Regnen [03:11]
 
Лог создания рипа
Exact Audio Copy V1.0 beta 3 from 29. August 2011
Отчёт EAC об извлечении, выполненном 18. мая 2013, 11:20
Quadro Nuevo / Quadro Nuevo in Concert
Дисковод: TEAC CD-W552E Adapter: 0 ID: 0
Режим чтения : Достоверность
Использование точного потока : Да
Отключение кэша аудио : Да
Использование указателей C2 : Нет
Коррекция смещения при чтении : 6
Способность читать области Lead-in и Lead-out : Нет
Заполнение пропущенных сэмплов тишиной : Да
Удаление блоков с тишиной в начале и конце : Нет
При вычислениях CRC использовались нулевые сэмплы : Да
Интерфейс : Установленный внешний ASPI-интерфейс
Выходной формат : Внутренние FLAC-операции
Формат сэмплов : 44.100 Гц; 16 бит; стерео
TOC извлечённого CD
Трек | Старт | Длительность | Начальный сектор | Конечный сектор
---------------------------------------------------------------------
1 | 0:00.06 | 4:30.14 | 6 | 20269
2 | 4:30.20 | 5:00.46 | 20270 | 42815
3 | 9:30.66 | 3:19.22 | 42816 | 57762
4 | 12:50.13 | 5:27.18 | 57763 | 82305
5 | 18:17.31 | 5:11.67 | 82306 | 105697
6 | 23:29.23 | 5:43.33 | 105698 | 131455
7 | 29:12.56 | 5:58.07 | 131456 | 158312
8 | 35:10.63 | 6:15.09 | 158313 | 186446
9 | 41:25.72 | 5:59.17 | 186447 | 213388
10 | 47:25.14 | 5:38.41 | 213389 | 238779
11 | 53:03.55 | 7:06.64 | 238780 | 270793
12 | 60:10.44 | 5:53.73 | 270794 | 297341
13 | 66:04.42 | 4:20.33 | 297342 | 316874
14 | 70:25.00 | 3:11.40 | 316875 | 331239
Характеристики диапазона извлечения и сообщения об ошибках
Выбранный диапазон
Имя файла D:\Temp\Quadro Nuevo - Quadro Nuevo in Concert.FLAC
Пиковый уровень 99.8 %
Скорость извлечения 11.1 X
Качество диапазона 100.0 %
CRC копии F7EFA482
Копирование... OK
Ошибок не произошло
Конец отчёта
==== Контрольная сумма отчёта C32F956D945DC608B3F851BFA10DC1AE62670D8A25B1070E75D195ADFD87EF4F ====
 
Содержание индексной карты (.CUE)
REM GENRE Other
REM DATE 2012
REM DISCID CA11400E
REM COMMENT "ExactAudioCopy v1.0b3"
PERFORMER "Quadro Nuevo"
TITLE "Quadro Nuevo in Concert"
FILE "Quadro Nuevo - Quadro Nuevo in Concert.wav" WAVE
TRACK 01 AUDIO
TITLE "Tu vuo `fa` L` Americano"
PERFORMER "Quadro Nuevo"
ISRC DED991100212
INDEX 00 00:00:00
INDEX 01 00:00:06
TRACK 02 AUDIO
TITLE "Giovanni Tranquillo"
PERFORMER "Quadro Nuevo"
ISRC DED991100213
INDEX 01 04:30:20
TRACK 03 AUDIO
TITLE "Luna Rossa"
PERFORMER "Quadro Nuevo"
ISRC DED991100214
INDEX 01 09:30:66
TRACK 04 AUDIO
TITLE "Sultana"
PERFORMER "Quadro Nuevo"
ISRC DED991100215
INDEX 01 12:50:13
TRACK 05 AUDIO
TITLE "Canzone della Strada"
PERFORMER "Quadro Nuevo"
ISRC DED991100216
INDEX 01 18:17:31
TRACK 06 AUDIO
TITLE "Paroles,Paroles"
PERFORMER "Quadro Nuevo"
ISRC DED991100217
INDEX 01 23:29:23
TRACK 07 AUDIO
TITLE "Miserlou"
PERFORMER "Quadro Nuevo"
ISRC DED991100218
INDEX 01 29:12:56
TRACK 08 AUDIO
TITLE "Prinzessin Josefina"
PERFORMER "Quadro Nuevo"
ISRC DED991100219
INDEX 01 35:10:63
TRACK 09 AUDIO
TITLE "El Choclo"
PERFORMER "Quadro Nuevo"
ISRC DED991100220
INDEX 01 41:25:72
TRACK 10 AUDIO
TITLE "Susannata"
PERFORMER "Quadro Nuevo"
ISRC DED991100221
INDEX 01 47:25:14
TRACK 11 AUDIO
TITLE "Cancao do Mar"
PERFORMER "Quadro Nuevo"
ISRC DED991100222
INDEX 01 53:03:55
TRACK 12 AUDIO
TITLE "Paprika"
PERFORMER "Quadro Nuevo"
ISRC DED991100223
INDEX 01 60:10:44
TRACK 13 AUDIO
TITLE "Gracias a la Vida"
PERFORMER "Quadro Nuevo"
ISRC DED991100224
INDEX 01 66:04:42
TRACK 14 AUDIO
TITLE "Fur mich soll`s rote Rosen regnen"
PERFORMER "Quadro Nuevo"
ISRC DED991100225
INDEX 01 70:25:00
12:08
321
Нет комментариев. Ваш будет первым!