Поиск

(Ethnic Jazz, Intakt Records) Koch – Schutz – Studer & Musicos Cubanos - Fidel - 1999, FLAC (tracks+.cue), lossless

(Ethnic Jazz, Intakt Records) Koch – Schutz – Studer & Musicos Cubanos - Fidel - 1999, FLAC (tracks+.cue), lossless
Издатель (лейбл):
Треклист:
Koch – Schütz – Studer & Músicos Cubanos / Fidel
Жанр: Ethnic Jazz, Intakt Records
Страна-производитель диска: Switzerland
Год издания: 1999
Издатель (лейбл): Intakt Records
Номер по каталогу: CD 056
Аудиокодек: FLAC (*.flac)
Тип рипа: tracks+.cue
Битрейт аудио: lossless
Продолжительность: 1:03:51
Источник (релизер): Max Monteiro
Наличие сканов в содержимом раздачи: да
Треклист:
01. Vértigo (Hans Koch) 7:17
02. Armonia de clave y guaguancó (Words and music by Arturo Martinez, arr. by Koch-Schütz-Studer) 5:33
03. Last Edit La Habana (Hans Koch, Martin Schütz, Fredy Studer) 10:44
04. Wood’n'Timbales (Hans Koch, Blasegües Martinez) 4:29
05. Undostres (Hans Koch, Martin Schütz, Fredy Studer, Juan « Cotó » Antomarchi) 6:05
06. Suenan las claves (Words by Eloy Machado, music by Amado de J. Dedéu Hernández, arr. by Koch-Schütz-Studer) 9:56
07. G-String montuno (dedicated to Chano Pozo) (Hans Koch, Martin Schütz, Fredy Studer) 3:41
08. Eye-Candy (Hans Koch) 4:15
09. 3 Against 4 and More (Hans Koch, Martin Schütz, Fredy Studer) 1:50
10. Silence Is a Rhythm Too (Hans Koch, Martin Schütz, Fredy Studer, Cristobal Larrinaga Cabrera, Mario F. Rodriguez Pedroso, Santiago Garzón Rill) 10:01
 
Лог создания рипа
Exact Audio Copy V1.0 beta 3 from 29. August 2011
EAC extraction logfile from 26. May 2013, 18:32
Koch - Schütz - Studer & Músicos Cubanos / Fidel
Used drive : SlimtypeeNAU508 5 Adapter: 1 ID: 0
Read mode : Secure
Utilize accurate stream : Yes
Defeat audio cache : Yes
Make use of C2 pointers : No
Read offset correction : 6
Overread into Lead-In and Lead-Out : No
Fill up missing offset samples with silence : Yes
Delete leading and trailing silent blocks : No
Null samples used in CRC calculations : Yes
Used interface : Native Win32 interface for Win NT & 2000
Gap handling : Appended to previous track
Used output format : User Defined Encoder
Selected bitrate : 768 kBit/s
Quality : High
Add ID3 tag : No
Command line compressor : C:\Program Files (x86)\Exact Audio Copy\Flac\flac.exe
Additional command line options : -8 -V -T "ARTIST=%artist%" -T "TITLE=%title%" -T "ALBUM=%albumtitle%" -T "DATE=%year%" -T "TRACKNUMBER=%tracknr%" -T "GENRE=%genre%" -T "PERFORMER=%albuminterpret%" -T "COMPOSER=%composer%" %haslyrics%--tag-from-file=LYRICS="%lyricsfile%"%haslyrics% -T "ALBUMARTIST=%albumartist%" -T "DISCNUMBER=%cdnumber%" -T "TOTALDISCS=%totalcds%" -T "TOTALTRACKS=%numtracks%" -T "COMMENT=%comment%" %source% -o %dest%
TOC of the extracted CD
Track | Start | Length | Start sector | End sector
---------------------------------------------------------
1 | 0:00.00 | 7:16.42 | 0 | 32741
2 | 7:16.42 | 5:33.03 | 32742 | 57719
3 | 12:49.45 | 10:43.57 | 57720 | 106001
4 | 23:33.27 | 4:29.10 | 106002 | 126186
5 | 28:02.37 | 6:05.23 | 126187 | 153584
6 | 34:07.60 | 9:56.22 | 153585 | 198306
7 | 44:04.07 | 3:40.45 | 198307 | 214851
8 | 47:44.52 | 4:15.20 | 214852 | 233996
9 | 51:59.72 | 1:49.70 | 233997 | 242241
10 | 53:49.67 | 10:00.50 | 242242 | 287291
Track 1
Filename C:\EAC rips\01 - Vértigo.wav
Pre-gap length 0:00:02.00
Peak level 95.6 %
Extraction speed 1.1 X
Track quality 99.9 %
Test CRC 825470BA
Copy CRC 825470BA
Accurately ripped (confidence 1) [BD0D10E0] (AR v2)
Copy OK
Track 2
Filename C:\EAC rips\02 - Armonia de clave y guaguancó.wav
Pre-gap length 0:00:03.47
Peak level 95.1 %
Extraction speed 1.3 X
Track quality 100.0 %
Test CRC 65ADC0BB
Copy CRC 65ADC0BB
Accurately ripped (confidence 1) [8767DB03] (AR v2)
Copy OK
Track 3
Filename C:\EAC rips\03 - Last Edit La Habana.wav
Pre-gap length 0:00:03.03
Peak level 94.8 %
Extraction speed 1.5 X
Track quality 99.9 %
Test CRC 812ACF58
Copy CRC 812ACF58
Accurately ripped (confidence 1) [8E23D958] (AR v2)
Copy OK
Track 4
Filename C:\EAC rips\04 - Wood'n'Timbales.wav
Pre-gap length 0:00:03.35
Peak level 100.0 %
Extraction speed 1.7 X
Track quality 100.0 %
Test CRC 936F2D68
Copy CRC 936F2D68
Accurately ripped (confidence 1) [7460E596] (AR v2)
Copy OK
Track 5
Filename C:\EAC rips\05 - Undostres.wav
Pre-gap length 0:00:02.17
Peak level 93.8 %
Extraction speed 1.8 X
Track quality 100.0 %
Test CRC 9B2AA175
Copy CRC 9B2AA175
Accurately ripped (confidence 1) [07C1277E] (AR v2)
Copy OK
Track 6
Filename C:\EAC rips\06 - Suenan las claves.wav
Pre-gap length 0:00:00.68
Peak level 97.8 %
Extraction speed 1.9 X
Track quality 99.9 %
Test CRC B93F553D
Copy CRC B93F553D
Accurately ripped (confidence 1) [E2172F5C] (AR v2)
Copy OK
Track 7
Filename C:\EAC rips\07 - G-String montuno (dedicated to Chano Pozo).wav
Pre-gap length 0:00:00.12
Peak level 99.0 %
Extraction speed 2.0 X
Track quality 100.0 %
Test CRC D849AF17
Copy CRC D849AF17
Accurately ripped (confidence 1) [99575246] (AR v2)
Copy OK
Track 8
Filename C:\EAC rips\08 - Eye-Candy.wav
Pre-gap length 0:00:01.00
Peak level 99.4 %
Extraction speed 1.8 X
Track quality 99.9 %
Test CRC 395B60CC
Copy CRC 395B60CC
Accurately ripped (confidence 1) [1BFD098D] (AR v2)
Copy OK
Track 9
Filename C:\EAC rips\09 - 3 Against 4 and More.wav
Pre-gap length 0:00:02.60
Peak level 79.3 %
Extraction speed 1.8 X
Track quality 100.0 %
Test CRC 80414505
Copy CRC 80414505
Accurately ripped (confidence 1) [1E7E7A5F] (AR v2)
Copy OK
Track 10
Filename C:\EAC rips\10 - Silence Is a Rhythm Too.wav
Pre-gap length 0:00:03.52
Peak level 94.2 %
Extraction speed 2.4 X
Track quality 100.0 %
Test CRC 89002F78
Copy CRC 89002F78
Accurately ripped (confidence 1) [C777C505] (AR v2)
Copy OK
All tracks accurately ripped
No errors occurred
End of status report
---- CUETools DB Plugin V2.1.4
[CTDB TOCID: _zkZsH9nOMvYHJV.rIoni_S0aLc-] found
Submit result: _zkZsH9nOMvYHJV.rIoni_S0aLc- has been confirmed
Track | CTDB Status
1 | (1/1) Accurately ripped
2 | (1/1) Accurately ripped
3 | (1/1) Accurately ripped
4 | (1/1) Accurately ripped
5 | (1/1) Accurately ripped
6 | (1/1) Accurately ripped
7 | (1/1) Accurately ripped
8 | (1/1) Accurately ripped
9 | (1/1) Accurately ripped
10 | (1/1) Accurately ripped
==== Log checksum 0F4875200F6D7074DD4C19E57C2C85AD3F91B49A1FA8CE5A10CC40200B2566AA ====
 
Содержание индексной карты (.CUE)
REM GENRE Jazz
REM DATE 1999
REM DISCID 850EF60A
REM COMMENT "ExactAudioCopy v1.0b3"
PERFORMER "Koch - Schütz - Studer & Músicos Cubanos"
TITLE "Fidel"
FILE "01 - Vértigo.wav" WAVE
TRACK 01 AUDIO
TITLE "Vértigo"
PERFORMER "Koch - Schütz - Studer & Músicos Cubanos"
INDEX 01 00:00:00
TRACK 02 AUDIO
TITLE "Armonia de clave y guaguancó"
PERFORMER "Koch - Schütz - Studer & Músicos Cubanos"
INDEX 00 07:12:70
FILE "02 - Armonia de clave y guaguancó.wav" WAVE
INDEX 01 00:00:00
TRACK 03 AUDIO
TITLE "Last Edit La Habana"
PERFORMER "Koch - Schütz - Studer & Músicos Cubanos"
INDEX 00 05:30:00
FILE "03 - Last Edit La Habana.wav" WAVE
INDEX 01 00:00:00
TRACK 04 AUDIO
TITLE "Wood'n'Timbales"
PERFORMER "Koch - Schütz - Studer & Músicos Cubanos"
INDEX 00 10:40:22
FILE "04 - Wood'n'Timbales.wav" WAVE
INDEX 01 00:00:00
TRACK 05 AUDIO
TITLE "Undostres"
PERFORMER "Koch - Schütz - Studer & Músicos Cubanos"
INDEX 00 04:26:68
FILE "05 - Undostres.wav" WAVE
INDEX 01 00:00:00
TRACK 06 AUDIO
TITLE "Suenan las claves"
PERFORMER "Koch - Schütz - Studer & Músicos Cubanos"
INDEX 00 06:04:30
FILE "06 - Suenan las claves.wav" WAVE
INDEX 01 00:00:00
TRACK 07 AUDIO
TITLE "G-String montuno (dedicated to Chano Pozo)"
PERFORMER "Koch - Schütz - Studer & Músicos Cubanos"
INDEX 00 09:56:10
FILE "07 - G-String montuno (dedicated to Chano Pozo).wav" WAVE
INDEX 01 00:00:00
TRACK 08 AUDIO
TITLE "Eye-Candy"
PERFORMER "Koch - Schütz - Studer & Músicos Cubanos"
INDEX 00 03:39:45
FILE "08 - Eye-Candy.wav" WAVE
INDEX 01 00:00:00
TRACK 09 AUDIO
TITLE "3 Against 4 and More"
PERFORMER "Koch - Schütz - Studer & Músicos Cubanos"
INDEX 00 04:12:35
FILE "09 - 3 Against 4 and More.wav" WAVE
INDEX 01 00:00:00
TRACK 10 AUDIO
TITLE "Silence Is a Rhythm Too"
PERFORMER "Koch - Schütz - Studer & Músicos Cubanos"
INDEX 00 01:46:18
FILE "10 - Silence Is a Rhythm Too.wav" WAVE
INDEX 01 00:00:00
Доп. информация: Recorded at Egrem Studios, Havana, Cuba, March 31 to April 5, 1997, and at Soundville Recording Studios, Lucerne, Switzerland, January 18-21, 1998.
 
Состав
Hans Koch – Clarinets, Saxophones, Electronics, Samples, Tapes, Sequencer
Martin Schütz – Electric 5-String Cello, Acoustic Cello, Electronics, Samples
Fredy Studer – Drums, Percussion
Juan « Cotó » Antomarchi – Tres
Pedro F. Almeida Berriel – Vocal, Percussion
Cristobal Larrinaga Cabrera – Vocal, Percussion
Bobby Carcassés – Voice
Silvia Amaro Garcia – Vocal
Yudit Martinez Hechavarria – Güiro
Amado de J. Dedéu Hernández – Vocal, Percussion
Roberto Hernández – Percussion
Leonardo Planches Lara – Vocal, Percussion
José Pérez Manreza – Vocal, Percussion
Arturo Cabrera Martinez – Vocal, Percussion
Blasegües Martinez – Timbales
Emilio del Monte Jr – Percussion
Dolores Banguela Navarrete – Vocal
Mario F. Rodriguez Pedroso – Vocal, Percussion
Santiago Garzón Rill – Vocal, Percussion
Damarys Driggs Rodriguez – Vocal
Mario Orlando Ortega Zulueta – Congas, Bongos
12:08
329
Нет комментариев. Ваш будет первым!