Поиск

(Ethnic Jazz, Contemporary Jazz) Hans Kennel - Mytha new edition - 2009, FLAC (tracks+.cue), lossless

(Ethnic Jazz, Contemporary Jazz) Hans Kennel - Mytha new edition - 2009, FLAC (tracks+.cue), lossless
Треклист:
Hans Kennel / Mytha new edition
Жанр: Ethnic Jazz, Contemporary Jazz
Страна-производитель диска: Switzerland
Год издания: 2009
Издатель (лейбл): TCB – The Montreux Jazz Label
Номер по каталогу: 03152
Аудиокодек: FLAC (*.flac)
Тип рипа: tracks+.cue
Битрейт аудио: lossless
Продолжительность: 43:50
Источник (релизер): Max Monteiro
Наличие сканов в содержимом раздачи: нет
Треклист:
01. Gäbs (Hans Kennel, lyrics by Kurt Marti) 1:55
02. Dance Five (Hans Kennel) 2:18
03. Lioba (Joseph Bovet on traditional, arr. Hans Kennel & Carlos) 5:39
04. Lueget vo Berge und Tal (Trad. / F. Huber, lyrics J. A. Henne, yodel part Betty Legler, arr. Hans Kennel & Betty Legler) 4:44
05. Die alte Schwyzer (Hans Kennel on traditional, lyrics Meinrad Lienert) 2:59
06. Das Rotbaggig Lied (Betty Legler, lyrics by Georg Thürer, horn arr. Hans Kennel) 6:11
07. Us em Tal Call (Hans Kennel & Betty Legler) 2:32
08. New Snobben (Hans Kennel & Betty Legler) 3:23
09. Bukkehorn (Hans Kennel, arr. Hans Kennel & Betty Legler) 1:28
10. Rosa Loui (Hans Kennel, lyrics Kurt Marti, arr. Hans Kennel & Betty Legler) 4:44
11. Kamerun Baby (Marc Unternährer & Betty Legler) 3:24
12. Le Ranz des vaches de Gryon (Hans-Jürg Sommer, fairy tale inserts by Betty Legler) 3:30
13. Thomas Jüzli (Hans Kennel) 1:03
 
Лог создания рипа
Exact Audio Copy V1.0 beta 3 from 29. August 2011
EAC extraction logfile from 20. May 2013, 20:23
Hans Kennel / Mytha new edition
Used drive : SlimtypeeNAU508 5 Adapter: 1 ID: 0
Read mode : Secure
Utilize accurate stream : Yes
Defeat audio cache : Yes
Make use of C2 pointers : No
Read offset correction : 6
Overread into Lead-In and Lead-Out : No
Fill up missing offset samples with silence : Yes
Delete leading and trailing silent blocks : No
Null samples used in CRC calculations : Yes
Used interface : Native Win32 interface for Win NT & 2000
Gap handling : Appended to previous track
Used output format : User Defined Encoder
Selected bitrate : 768 kBit/s
Quality : High
Add ID3 tag : No
Command line compressor : C:\Program Files (x86)\Exact Audio Copy\Flac\flac.exe
Additional command line options : -8 -V -T "ARTIST=%artist%" -T "TITLE=%title%" -T "ALBUM=%albumtitle%" -T "DATE=%year%" -T "TRACKNUMBER=%tracknr%" -T "GENRE=%genre%" -T "PERFORMER=%albuminterpret%" -T "COMPOSER=%composer%" %haslyrics%--tag-from-file=LYRICS="%lyricsfile%"%haslyrics% -T "ALBUMARTIST=%albumartist%" -T "DISCNUMBER=%cdnumber%" -T "TOTALDISCS=%totalcds%" -T "TOTALTRACKS=%numtracks%" -T "COMMENT=%comment%" %source% -o %dest%
TOC of the extracted CD
Track | Start | Length | Start sector | End sector
---------------------------------------------------------
1 | 0:00.00 | 1:55.07 | 0 | 8631
2 | 1:55.07 | 2:17.46 | 8632 | 18952
3 | 4:12.53 | 5:39.19 | 18953 | 44396
4 | 9:51.72 | 4:43.66 | 44397 | 65687
5 | 14:35.63 | 2:59.10 | 65688 | 79122
6 | 17:34.73 | 6:11.09 | 79123 | 106956
7 | 23:46.07 | 2:31.39 | 106957 | 118320
8 | 26:17.46 | 3:23.37 | 118321 | 133582
9 | 29:41.08 | 1:27.52 | 133583 | 140159
10 | 31:08.60 | 4:44.08 | 140160 | 161467
11 | 35:52.68 | 3:24.12 | 161468 | 176779
12 | 39:17.05 | 3:30.16 | 176780 | 192545
13 | 42:47.21 | 1:02.46 | 192546 | 197241
Track 1
Filename C:\EAC rips\01 - Gäbs.wav
Pre-gap length 0:00:02.00
Peak level 95.7 %
Extraction speed 0.9 X
Track quality 100.0 %
Test CRC E4FC3D24
Copy CRC E4FC3D24
Track not present in AccurateRip database
Copy OK
Track 2
Filename C:\EAC rips\02 - Dance Five.wav
Pre-gap length 0:00:02.70
Peak level 97.3 %
Extraction speed 1.0 X
Track quality 100.0 %
Test CRC 180F386A
Copy CRC 180F386A
Track not present in AccurateRip database
Copy OK
Track 3
Filename C:\EAC rips\03 - Lioba.wav
Pre-gap length 0:00:01.25
Peak level 96.3 %
Extraction speed 1.2 X
Track quality 99.9 %
Test CRC 80F60664
Copy CRC 80F60664
Track not present in AccurateRip database
Copy OK
Track 4
Filename C:\EAC rips\04 - Lueget vo Berge und Tal.wav
Pre-gap length 0:00:00.40
Peak level 96.4 %
Extraction speed 1.3 X
Track quality 99.9 %
Test CRC 1BFCDBBF
Copy CRC 1BFCDBBF
Track not present in AccurateRip database
Copy OK
Track 5
Filename C:\EAC rips\05 - Die alte Schwyzer.wav
Pre-gap length 0:00:02.04
Peak level 89.7 %
Extraction speed 1.4 X
Track quality 100.0 %
Test CRC 97FE236F
Copy CRC 97FE236F
Track not present in AccurateRip database
Copy OK
Track 6
Filename C:\EAC rips\06 - Das Rotbaggig Lied.wav
Pre-gap length 0:00:02.40
Peak level 95.2 %
Extraction speed 1.7 X
Track quality 100.0 %
Test CRC 76AD56F3
Copy CRC 76AD56F3
Track not present in AccurateRip database
Copy OK
Track 7
Filename C:\EAC rips\07 - Us em Tal Call.wav
Pre-gap length 0:00:00.39
Peak level 95.2 %
Extraction speed 1.6 X
Track quality 100.0 %
Test CRC 9569E641
Copy CRC 9569E641
Track not present in AccurateRip database
Copy OK
Track 8
Filename C:\EAC rips\08 - New Snobben.wav
Pre-gap length 0:00:02.42
Peak level 93.0 %
Extraction speed 1.5 X
Track quality 99.9 %
Test CRC 199A7F64
Copy CRC 199A7F64
Track not present in AccurateRip database
Copy OK
Track 9
Filename C:\EAC rips\09 - Bukkehorn.wav
Pre-gap length 0:00:01.28
Peak level 74.4 %
Extraction speed 1.4 X
Track quality 100.0 %
Test CRC 558B5F2B
Copy CRC 558B5F2B
Track not present in AccurateRip database
Copy OK
Track 10
Filename C:\EAC rips\10 - Rosa Loui.wav
Pre-gap length 0:00:02.47
Peak level 91.7 %
Extraction speed 1.9 X
Track quality 100.0 %
Test CRC D44EC587
Copy CRC D44EC587
Track not present in AccurateRip database
Copy OK
Track 11
Filename C:\EAC rips\11 - Kamerun Baby.wav
Pre-gap length 0:00:00.39
Peak level 98.6 %
Extraction speed 1.6 X
Track quality 99.9 %
Test CRC A5017F07
Copy CRC A5017F07
Track not present in AccurateRip database
Copy OK
Track 12
Filename C:\EAC rips\12 - Le Ranz des vaches de Gryon.wav
Pre-gap length 0:00:01.48
Peak level 93.2 %
Extraction speed 1.9 X
Track quality 100.0 %
Test CRC 3E16950C
Copy CRC 3E16950C
Track not present in AccurateRip database
Copy OK
Track 13
Filename C:\EAC rips\13 - Thomas Jüzli.wav
Pre-gap length 0:00:01.70
Peak level 86.8 %
Extraction speed 1.4 X
Track quality 100.0 %
Test CRC A94E04C5
Copy CRC A94E04C5
Track not present in AccurateRip database
Copy OK
None of the tracks are present in the AccurateRip database
No errors occurred
End of status report
---- CUETools DB Plugin V2.1.4
[CTDB TOCID: OPMPJb58vCsJhVpTQ8Kc4EhXhpk-] disk not present in database
Submit result: OPMPJb58vCsJhVpTQ8Kc4EhXhpk- has been uploaded
==== Log checksum 5E35FD8C61ADA5FA27F6D8C7711A5A2214D2FE856F7A02685A0A63AA631C9B3E ====
 
Содержание индексной карты (.CUE)
REM GENRE Jazz
REM DATE 2009
REM DISCID C60A450D
REM COMMENT "ExactAudioCopy v1.0b3"
CATALOG 0725095031523
PERFORMER "Hans Kennel"
TITLE "Mytha new edition"
FILE "01 - Gäbs.wav" WAVE
TRACK 01 AUDIO
TITLE "Gäbs"
PERFORMER "Hans Kennel"
ISRC CH1090315201
FLAGS DCP
INDEX 01 00:00:00
TRACK 02 AUDIO
TITLE "Dance Five"
PERFORMER "Hans Kennel"
ISRC CH1090315202
FLAGS DCP
INDEX 00 01:52:12
FILE "02 - Dance Five.wav" WAVE
INDEX 01 00:00:00
TRACK 03 AUDIO
TITLE "Lioba"
PERFORMER "Hans Kennel"
ISRC CH1090315203
FLAGS DCP
INDEX 00 02:16:21
FILE "03 - Lioba.wav" WAVE
INDEX 01 00:00:00
TRACK 04 AUDIO
TITLE "Lueget vo Berge und Tal"
PERFORMER "Hans Kennel"
ISRC CH1090315204
FLAGS DCP
INDEX 00 05:38:54
FILE "04 - Lueget vo Berge und Tal.wav" WAVE
INDEX 01 00:00:00
TRACK 05 AUDIO
TITLE "Die alte Schwyzer"
PERFORMER "Hans Kennel"
ISRC CH1090315205
FLAGS DCP
INDEX 00 04:41:62
FILE "05 - Die alte Schwyzer.wav" WAVE
INDEX 01 00:00:00
TRACK 06 AUDIO
TITLE "Das Rotbaggig Lied"
PERFORMER "Hans Kennel"
ISRC CH1090315206
FLAGS DCP
INDEX 00 02:56:45
FILE "06 - Das Rotbaggig Lied.wav" WAVE
INDEX 01 00:00:00
TRACK 07 AUDIO
TITLE "Us em Tal Call"
PERFORMER "Hans Kennel"
ISRC CH1090315207
FLAGS DCP
INDEX 00 06:10:45
FILE "07 - Us em Tal Call.wav" WAVE
INDEX 01 00:00:00
TRACK 08 AUDIO
TITLE "New Snobben"
PERFORMER "Hans Kennel"
ISRC CH1090315208
FLAGS DCP
INDEX 00 02:28:72
FILE "08 - New Snobben.wav" WAVE
INDEX 01 00:00:00
TRACK 09 AUDIO
TITLE "Bukkehorn"
PERFORMER "Hans Kennel"
ISRC CH1090315209
FLAGS DCP
INDEX 00 03:22:09
FILE "09 - Bukkehorn.wav" WAVE
INDEX 01 00:00:00
TRACK 10 AUDIO
TITLE "Rosa Loui"
PERFORMER "Hans Kennel"
ISRC CH1090315210
FLAGS DCP
INDEX 00 01:25:05
FILE "10 - Rosa Loui.wav" WAVE
INDEX 01 00:00:00
TRACK 11 AUDIO
TITLE "Kamerun Baby"
PERFORMER "Hans Kennel"
ISRC CH1090315211
FLAGS DCP
INDEX 00 04:43:44
FILE "11 - Kamerun Baby.wav" WAVE
INDEX 01 00:00:00
TRACK 12 AUDIO
TITLE "Le Ranz des vaches de Gryon"
PERFORMER "Hans Kennel"
ISRC CH1090315212
FLAGS DCP
INDEX 00 03:22:39
FILE "12 - Le Ranz des vaches de Gryon.wav" WAVE
INDEX 01 00:00:00
TRACK 13 AUDIO
TITLE "Thomas Jüzli"
PERFORMER "Hans Kennel"
ISRC CH1090315213
FLAGS DCP
INDEX 00 03:28:21
FILE "13 - Thomas Jüzli.wav" WAVE
INDEX 01 00:00:00
Доп. информация: Recorded in June 2008 at Radio Studio DRS Zurich & Orange Sound Studios, Munich.
 
Состав
Betty Legler – Vocal, Piano, Accordion
Hans Kennel – Alphorn, Buechel, Vocal
Marcel Huonder – Alphorn, Buechel
Philip Powell – Alphorn
Marc Unternährer – Alphorns
12:07
262
Нет комментариев. Ваш будет первым!