Поиск

(World Fusion, Post-Bop) Eberhard Weber, Jan Garbarek - Chorus - 1984, APE (image+.cue), lossless

(World Fusion, Post-Bop) Eberhard Weber, Jan Garbarek - Chorus - 1984, APE (image+.cue), lossless
Треклист:
Eberhard Weber, Jan Garbarek - Chorus
Жанр: World Fusion, Post-Bop
Год выпуска диска: 1984
Аудио кодек: APE
Тип рипа: image+.cue
Битрейт аудио: lossless
Продолжительность: 40:24
Лейбл: ECM
Трэклист:
1 Part I
2 Part II
3 Part III, IV
4 Part V
5 Part VI
6 Part VII
Музыканты:
Eberhard Weber - bass, synthesizter
Jan Garbarek - soprano and tenos saxes
Ralf-R. Hobner - drums
 
Отчёт EAC
Exact Audio Copy V0.99 prebeta 4 from 23. January 2008
Отчёт EAC об извлечении, выполненном 15. апреля 2009, 20:56
Eberhard Weber / Chorus
Дисковод: Optiarc DVD RW AD-7200A Adapter: 3 ID: 1
Режим чтения : Достоверность
Использование точного потока : Да
Отключение кэша аудио : Да
Использование указателей C2 : Нет
Коррекция смещения при чтении : 48
Способность читать области Lead-in и Lead-out : Нет
Заполнение пропущенных сэмплов тишиной : Да
Удаление блоков с тишиной в начале и конце : Нет
При вычислениях CRC использовались нулевые сэмплы : Да
Интерфейс : Установленный внешний ASPI-интерфейс
Выходной формат : Внутренние WAV-операции
Формат сэмплов : 44.100 Гц; 16 бит; стерео
TOC извлечённого CD
Трек | Старт | Длительность | Начальный сектор | Конечный сектор
---------------------------------------------------------------------
1 | 0:00.33 | 7:37.67 | 33 | 34374
2 | 7:38.25 | 5:38.43 | 34375 | 59767
3 | 13:16.68 | 7:52.57 | 59768 | 95224
4 | 21:09.50 | 3:26.10 | 95225 | 110684
5 | 24:35.60 | 7:38.33 | 110685 | 145067
6 | 32:14.18 | 8:17.42 | 145068 | 182384
Характеристики диапазона извлечения и сообщения об ошибках
Выбранный диапазон
Имя файла E:\Up-Down\Eberhard Weber - Chorus\Eberhard Weber - Chorus.wav
Пиковый уровень 85.4 %
Качество диапазона 100.0 %
CRC копии A5D78C85
Копирование... OK
Ошибок не произошло
Конец отчёта
По всем вопросам пишите личное сообщение пользователю M0p94ok.
05:50
192
Нет комментариев. Ваш будет первым!