Поиск

(Latin Jazz, Big Band) Lalo Schifrin - Piano Espanol - 1958, FLAC (tracks+.cue), lossless

(Latin Jazz, Big Band) Lalo Schifrin - Piano Espanol - 1958, FLAC (tracks+.cue), lossless
Треклист:
Lalo Schifrin - Piano Espanol (1958)
Жанр: Latin Jazz, Big Band
Дата выпуска: 1958, Tico
Дата переиздания: 2006
Производитель диска, страна: Protel Rec., USA, 176 160 397-2
Аудио кодек: FLAC
Тип рипа: (tracks + .cue)
Битрейт аудио: lossless
Включает: Full artwork
Продолжительность: 34:43
Источник: torrent
Трэклист:
1. All the Things You Are (Jerome Kern/Oscar Hammerstein II) - 3:15
2. The Breeze and I (Andalucia) (Ernesto Lecuona/Stillman) - 2:48
3. Capricho Espanol (Seijo/Schifrin/Moishe) - 3:21
4. My Shawl (Xavier Cugat/Adams/Berrios) - 2:46
5. Caravan (Tizol/Ellington) - 3:15
6. Malaguena (Ernesto Lecuona) - 2:11
7. Cha Cha Cha Flamenco (Mario DeJesus/Albrecht Marcuse/Andre Salvet) - 2:54
8. Warsaw Concerto (Richard Addinsell) - 2:00
9. Hulablues (Ralph Seijo/Lalo Schifrin) - 3:06
10. Jungle Fantasy (Ismael Ray Morales) - 2:31
11. All the Things You Are - 3:21
12. El Cumbanchero (Rafael Hernandez) - 2:35
Об исполнителе:
http://allmusic.com/cg/amg.dll?p=amg&sql=11:gifixql5ldke~T1
Об альбоме:
http://allmusic.com/cg/amg.dll?p=amg&sql=10:0vfyxqekld0e
Состав:
Lalo Schifrin (p,arr,cond) with 4 tpt, 5 sax, b-cl, oboe, bgo, harp and strings.
Издания:
Tico LP-1070, Tico TRSLP-1070 [CD], Protel 176 160 397-2 [CD], Blue Moon (Fr) BMCD-2059 [CD].
Mode (Fr) SMDR 9884 titled AFRO-RHYTHM.
Roulette SR-42013, Bellaphon BI-1560 titled LALOLE: THE LATIN SOUNDS OF LALO SCHIFRIN AND HIS ORCHESTRA.
 
CD scan
 
Back scan
 
EAC log
EAC extraction logfile from 12. October 2007, 16:03 for CD
Lalo Schifrin / Piano Espanol
Used drive : PLEXTOR CD-R PREMIUM2 Adapter: 1 ID: 1
Read mode : Secure with NO C2, accurate stream, disable cache
Read offset correction : 30
Overread into Lead-In and Lead-Out : No
Used output format : Internal WAV Routines
44.100 Hz; 16 Bit; Stereo
Other options :
Fill up missing offset samples with silence : Yes
Delete leading and trailing silent blocks : No
Installed external ASPI interface
Track 1
Filename C:\EAC\Lalo Schifrin - Piano Espanol (1958) [FLAC]\01 - Frenesi.wav
Pre-gap length 0:00:02.00
Peak level 100.0 %
Track quality 100.0 %
Test CRC B16E24FF
Copy CRC B16E24FF
Copy OK
Track 2
Filename C:\EAC\Lalo Schifrin - Piano Espanol (1958) [FLAC]\02 - The Breeze and I.wav
Peak level 100.0 %
Track quality 100.0 %
Test CRC 238CA66E
Copy CRC 238CA66E
Copy OK
Track 3
Filename C:\EAC\Lalo Schifrin - Piano Espanol (1958) [FLAC]\03 - Capricho Espanol.wav
Peak level 100.0 %
Track quality 100.0 %
Test CRC EA2F60D2
Copy CRC EA2F60D2
Copy OK
Track 4
Filename C:\EAC\Lalo Schifrin - Piano Espanol (1958) [FLAC]\04 - My Shawl.wav
Peak level 100.0 %
Track quality 100.0 %
Test CRC 00147DE8
Copy CRC 00147DE8
Copy OK
Track 5
Filename C:\EAC\Lalo Schifrin - Piano Espanol (1958) [FLAC]\05 - Caravan.wav
Peak level 100.0 %
Track quality 99.9 %
Test CRC 7DAE7ED8
Copy CRC 7DAE7ED8
Copy OK
Track 6
Filename C:\EAC\Lalo Schifrin - Piano Espanol (1958) [FLAC]\06 - Malaguena.wav
Peak level 100.0 %
Track quality 100.0 %
Test CRC 94B5C1AF
Copy CRC 94B5C1AF
Copy OK
Track 7
Filename C:\EAC\Lalo Schifrin - Piano Espanol (1958) [FLAC]\07 - Cha Cha Cha Flamenco.wav
Peak level 100.0 %
Track quality 100.0 %
Test CRC D6E72880
Copy CRC D6E72880
Copy OK
Track 8
Filename C:\EAC\Lalo Schifrin - Piano Espanol (1958) [FLAC]\08 - Warsaw Concerto.wav
Peak level 100.0 %
Track quality 100.0 %
Test CRC 7D0C632D
Copy CRC 7D0C632D
Copy OK
Track 9
Filename C:\EAC\Lalo Schifrin - Piano Espanol (1958) [FLAC]\09 - Hullabalues.wav
Peak level 100.0 %
Track quality 100.0 %
Test CRC AC305564
Copy CRC AC305564
Copy OK
Track 10
Filename C:\EAC\Lalo Schifrin - Piano Espanol (1958) [FLAC]\10 - Jungle Fantasy.wav
Peak level 100.0 %
Track quality 100.0 %
Test CRC DAE3BB59
Copy CRC DAE3BB59
Copy OK
Track 11
Filename C:\EAC\Lalo Schifrin - Piano Espanol (1958) [FLAC]\11 - All the Things You Are.wav
Peak level 100.0 %
Track quality 100.0 %
Test CRC 67082219
Copy CRC 67082219
Copy OK
Track 12
Filename C:\EAC\Lalo Schifrin - Piano Espanol (1958) [FLAC]\12 - El Cumbanchero.wav
Peak level 100.0 %
Track quality 99.9 %
Test CRC B30652E2
Copy CRC B30652E2
Copy OK
No errors occured
End of status report
 
auCDtect log
1842570813 36154988 01 - Frenesi.wav
3131674980 30324380 02 - The Breeze and I.wav
3730711844 36204380 03 - Capricho Espanol.wav
747107634 29896316 04 - My Shawl.wav
3734454332 34844924 05 - Caravan.wav
3725588198 23576492 06 - Malaguena.wav
1628108543 31124060 07 - Cha Cha Cha Flamenco.wav
349666911 21605516 08 - Warsaw Concerto.wav
1069635745 33828860 09 - Hullabalues.wav
585533915 27276188 10 - Jungle Fantasy.wav
219652009 35040140 11 - All the Things You Are.wav
540680615 27645452 12 - El Cumbanchero.wav
auCDtect: CD records authenticity detector, version 0.8.2
Copyright (c) 2004 Oleg Berngardt. All rights reserved.
Copyright (c) 2004 Alexander Djourik. All rights reserved.
------------------------------------------------------------
Processing file: [01 - Frenesi.wav]
------------------------------------------------------------
This track looks like CDDA with probability 100%
------------------------------------------------------------
Processing file: [02 - The Breeze and I.wav]
------------------------------------------------------------
This track looks like CDDA with probability 100%
------------------------------------------------------------
Processing file: [03 - Capricho Espanol.wav]
------------------------------------------------------------
This track looks like CDDA with probability 100%
------------------------------------------------------------
Processing file: [04 - My Shawl.wav]
------------------------------------------------------------
This track looks like CDDA with probability 100%
------------------------------------------------------------
Processing file: [05 - Caravan.wav]
------------------------------------------------------------
This track looks like CDDA with probability 100%
------------------------------------------------------------
Processing file: [06 - Malaguena.wav]
------------------------------------------------------------
This track looks like CDDA with probability 99%
------------------------------------------------------------
Processing file: [07 - Cha Cha Cha Flamenco.wav]
------------------------------------------------------------
This track looks like CDDA with probability 100%
------------------------------------------------------------
Processing file: [08 - Warsaw Concerto.wav]
------------------------------------------------------------
This track looks like CDDA with probability 100%
------------------------------------------------------------
Processing file: [09 - Hullabalues.wav]
------------------------------------------------------------
This track looks like CDDA with probability 100%
------------------------------------------------------------
Processing file: [10 - Jungle Fantasy.wav]
------------------------------------------------------------
This track looks like CDDA with probability 99%
------------------------------------------------------------
Processing file: [11 - All the Things You Are.wav]
------------------------------------------------------------
This track looks like CDDA with probability 99%
------------------------------------------------------------
Processing file: [12 - El Cumbanchero.wav]
------------------------------------------------------------
This track looks like CDDA with probability 99%
------------------------------------------------------------
Final Conclusion:
------------------------------------------------------------
These tracks looks like CDDA with probability 100%
Я не сидирую все свои раздачи подолгу, только новые (до 3х первых сидов)
Предлагаю скачавшим максимально долго оставаться на раздаче - весь рейтинг будет ваш
Если нет сидов или раздача находится в архиве, пришлите письмо, и я вернусь
Заботьтесь о своем рейтинге - приветствуется конвертация моих раздач в мп3 и выкладывание в соотвтствующем разделе
По всем вопросам пишите личное сообщение пользователю M0p94ok.
05:49
240
Нет комментариев. Ваш будет первым!