Поиск

(Brazilian Jazz, Bossa Nova) Ivan Lins - A quem me faz Feliz - 2002, APE (image+.cue), 756

(Brazilian Jazz, Bossa Nova) Ivan Lins - A quem me faz Feliz - 2002, APE (image+.cue), 756
Треклист:
Ivan Lins - A quem me faz Feliz
Жанр: Brazilian Jazz, Bossa Nova
Год выпуска диска: 2002
Аудио кодек: APE
Тип рипа: image+.cue
Битрейт аудио: 756
Продолжительность: 1:00:37
Трэклист:
1. Lua do Arpoador
2. Love Dance - Featuring Jane Monheit
3. Insensatez
4. Love
5. Só Para Ganhar Você (My Cherie Amour)
6. Plus Fort Que Nous
7. Ex-Amor
8. Ti Amo
9. All the Things You Are
10. A Quem Me Faz Feliz
11. Esta Tarde Vi Llover
12. Visionários
13. She
14. Fogueiras
участники:
Armando Marcal - Percussion
Bernardo Bessler - Violin
Jesse Sadoc - Trumpet, Flugelhorn, Soloist
Leci Brandão - Keyboard Programming
Duda Mello - Mixing
Jane Monheit - Vocals, Guest Appearance
Wanda Sá - Vocals, Guest Appearance
Marco Brito
Téo Bateria - Bateria
Roberto Menescal - Guitar, Producer, Soloist, Guest Appearance, Coros, Musical Direction
Ze Carlos - Guitar
Danilo Caymmi - Flute
Ivan Lins - Piano, Piano (Electric), Vocals, Producer, Bass Arrangement, Soloist, Coros, Scat
 
Отчёт ЕАС
Exact Audio Copy V0.99 prebeta 3 from 28. July 2007
Отчёт EAC об извлечении, выполненном 5. февраля 2008, 9:21
Ivan Lins / A Quem Me Faz Feliz
Дисковод: MATSHITADVD-RAM UJ-851S Adapter: 0 ID: 0
Режим чтения : Достоверность
Использование точного потока : Да
Отключение кэша аудио : Да
Использование указателей C2 : Нет
Коррекция смещения при чтении : 102
Способность читать области Lead-in и Lead-out : Нет
Заполнение пропущенных сэмплов тишиной : Да
Удаление блоков с тишиной в начале и конце : Нет
При вычислениях CRC использовались нулевые сэмплы : Да
Интерфейс : Установленный внешний ASPI-интерфейс
Выходной формат : Внутренние WAV-операции
Формат сэмплов : 44.100 Гц; 16 бит; стерео
TOC извлечённого CD
Трек | Старт | Длительность | Начальный сектор | Конечный сектор
---------------------------------------------------------------------
1 | 0:00.00 | 4:53.74 | 0 | 22048
2 | 4:53.74 | 5:40.10 | 22049 | 47558
3 | 10:34.09 | 4:24.41 | 47559 | 67399
4 | 14:58.50 | 4:00.71 | 67400 | 85470
5 | 18:59.46 | 4:25.07 | 85471 | 105352
6 | 23:24.53 | 3:55.43 | 105353 | 123020
7 | 27:20.21 | 4:51.55 | 123021 | 144900
8 | 32:12.01 | 4:18.62 | 144901 | 164312
9 | 36:30.63 | 4:09.59 | 164313 | 183046
10 | 40:40.47 | 4:00.17 | 183047 | 201063
11 | 44:40.64 | 4:03.26 | 201064 | 219314
12 | 48:44.15 | 4:04.06 | 219315 | 237620
13 | 52:48.21 | 3:53.37 | 237621 | 255132
14 | 56:41.58 | 3:55.55 | 255133 | 272812
Характеристики диапазона извлечения и сообщения об ошибках
Выбранный диапазон
Имя файла C:\MUSIC\APE\Ivan Lins - A Quem Me Faz Feliz(2002)\Ivan Lins - A Quem Me Faz Feliz.wav
Пиковый уровень 96.3 %
Качество диапазона 100.0 %
CRC копии 64F85F3F
Копирование... OK
Ошибок не произошло
AccurateRip: сводка
Трек 1 нет в базе данных
Трек 2 нет в базе данных
Трек 3 нет в базе данных
Трек 4 нет в базе данных
Трек 5 нет в базе данных
Трек 6 нет в базе данных
Трек 7 нет в базе данных
Трек 8 нет в базе данных
Трек 9 нет в базе данных
Трек 10 нет в базе данных
Трек 11 нет в базе данных
Трек 12 нет в базе данных
Трек 13 нет в базе данных
Трек 14 нет в базе данных
Ни одного трека нет в базе AccurateRip
Конец отчёта
 
Аудиочекер
AUDIOCHECKER v2.0 beta (build 457) - by Dester - opdester@freemail.hu
~~~~~~~~~~~~~~~~~~~~~~~~~~~~~~~~~~
Начато: четверг, 23. 04. 2009. - 7:48.04
Найдено файлов: 1
1 -===- D:\11\Ivan Lins - (2002) A Quem Me Faz Feliz\Ivan Lins - A Quem Me Faz Feliz.ape
Извлечение успешно выполнено
Заключение: этот трек - CDDA с вероятностью 100%
Временный файл удалён.
Завершено: четверг, 23. 04. 2009. - 8:00.51 (Время операции: 0:12.46)
Download available for power users only.
05:51
178
Нет комментариев. Ваш будет первым!