Поиск

(World Fusion) Olivier Ker Ourio - A Ride with the Wind - 2001, FLAC (tracks+.cue), lossless

(World Fusion) Olivier Ker Ourio - A Ride with the Wind - 2001, FLAC (tracks+.cue), lossless
Треклист:
Olivier Ker Ourio - A Ride with the Wind
Жанр: World Fusion
Год выпуска диска: 2001
Производитель диска: Франция (Naive)
Аудио кодек: FLAC
Тип рипа: tracks+.cue
Битрейт аудио: lossless
Продолжительность: 57:29.400 (152118540 samples)
Трэклист:
1. cevennes
2. concrete is my business
3. marie-louise
4. everybody loves an island
5. le jouet
6. nelsinho
7. icicles
8. cesar
9. seven days in new-york
 
Отчёт EAC
Exact Audio Copy V0.99 prebeta 5 from 4. May 2009
EAC extraction logfile from 10. July 2009, 16:15
Olivier Ker Ourio / a ride with the wind
Used drive : PLEXTOR DVDR PX-860A Adapter: 0 ID: 0
Read mode : Secure
Utilize accurate stream : Yes
Defeat audio cache : Yes
Make use of C2 pointers : No
Read offset correction : 96
Overread into Lead-In and Lead-Out : No
Fill up missing offset samples with silence : Yes
Delete leading and trailing silent blocks : No
Null samples used in CRC calculations : Yes
Used interface : Native Win32 interface for Win NT & 2000
Gap handling : Appended to previous track
Used output format : User Defined Encoder
Selected bitrate : 896 kBit/s
Quality : High
Add ID3 tag : No
Command line compressor : C:\Program Files\FLAC\flac.exe
Additional command line options : -8 -V -T "ARTIST=%a" -T "TITLE=%t" -T "ALBUM=%g" -T "DATE=%y" -T "TRACKNUMBER=%n" -T "TOTALTRACKS=%x" -T "GENRE=%m" -T "ALBUM ARTIST=%v" -T "ALBUMARTIST=%v" -T "COMMENT=EAC V0.99 prebeta 5, Secure Mode, Test & Copy, Accurat
TOC of the extracted CD
Track | Start | Length | Start sector | End sector
---------------------------------------------------------
1 | 0:00.00 | 6:44.44 | 0 | 30343
2 | 6:44.44 | 9:16.66 | 30344 | 72109
3 | 16:01.35 | 4:18.36 | 72110 | 91495
4 | 20:19.71 | 6:34.34 | 91496 | 121079
5 | 26:54.30 | 6:03.09 | 121080 | 148313
6 | 32:57.39 | 5:33.69 | 148314 | 173357
7 | 38:31.33 | 6:12.00 | 173358 | 201257
8 | 44:43.33 | 5:43.33 | 201258 | 227015
9 | 50:26.66 | 7:02.39 | 227016 | 258704
Track 1
Filename D:\DL\Olivier Ker Ourio - a ride with the wind (2001) [FLAC] {Naпve}\01 - cevennes.wav
Pre-gap length 0:00:02.00
Peak level 98.8 %
Track quality 100.0 %
Test CRC BBCE126A
Copy CRC BBCE126A
Track not present in AccurateRip database
Copy OK
Track 2
Filename D:\DL\Olivier Ker Ourio - a ride with the wind (2001) [FLAC] {Naпve}\02 - concrete is my business.wav
Pre-gap length 0:00:01.60
Peak level 98.8 %
Track quality 99.9 %
Test CRC 99223452
Copy CRC 99223452
Track not present in AccurateRip database
Copy OK
Track 3
Filename D:\DL\Olivier Ker Ourio - a ride with the wind (2001) [FLAC] {Naпve}\03 - marie-louise.wav
Pre-gap length 0:00:02.60
Peak level 98.8 %
Track quality 100.0 %
Test CRC 640E93BF
Copy CRC 640E93BF
Track not present in AccurateRip database
Copy OK
Track 4
Filename D:\DL\Olivier Ker Ourio - a ride with the wind (2001) [FLAC] {Naпve}\04 - everybody loves an island.wav
Pre-gap length 0:00:01.58
Peak level 98.7 %
Track quality 100.0 %
Test CRC 2269DC68
Copy CRC 2269DC68
Track not present in AccurateRip database
Copy OK
Track 5
Filename D:\DL\Olivier Ker Ourio - a ride with the wind (2001) [FLAC] {Naпve}\05 - le jouet.wav
Pre-gap length 0:00:02.58
Peak level 98.8 %
Track quality 100.0 %
Test CRC 090E59A8
Copy CRC 090E59A8
Track not present in AccurateRip database
Copy OK
Track 6
Filename D:\DL\Olivier Ker Ourio - a ride with the wind (2001) [FLAC] {Naпve}\06 - nelsinho.wav
Pre-gap length 0:00:02.58
Peak level 98.8 %
Track quality 100.0 %
Test CRC 71732CCA
Copy CRC 71732CCA
Track not present in AccurateRip database
Copy OK
Track 7
Filename D:\DL\Olivier Ker Ourio - a ride with the wind (2001) [FLAC] {Naпve}\07 - icicles.wav
Pre-gap length 0:00:01.60
Peak level 98.8 %
Track quality 100.0 %
Test CRC AD98CE25
Copy CRC AD98CE25
Track not present in AccurateRip database
Copy OK
Track 8
Filename D:\DL\Olivier Ker Ourio - a ride with the wind (2001) [FLAC] {Naпve}\08 - cesar.wav
Peak level 98.8 %
Track quality 100.0 %
Test CRC 7F9E745A
Copy CRC 7F9E745A
Track not present in AccurateRip database
Copy OK
Track 9
Filename D:\DL\Olivier Ker Ourio - a ride with the wind (2001) [FLAC] {Naпve}\09 - seven days in new-york.wav
Pre-gap length 0:00:01.58
Peak level 98.8 %
Track quality 99.8 %
Test CRC CC1B9291
Copy CRC CC1B9291
Track not present in AccurateRip database
Copy OK
None of the tracks are present in the AccurateRip database
No errors occurred
End of status report
По всем вопросам пишите личное сообщение пользователю M0p94ok.
07:29
217
Нет комментариев. Ваш будет первым!