Поиск

(Latin Jazz, Brazilian Folk, Tzadik, Tribute) VA - Great Jewish Music: Jacob do Bandolim - 2004, APE (image+.cue), lossless

Треклист:
Various Artists - Great Jewish Music: Jacob do Bandolim
Жанр: Jazz, Tzadik, Tribute
Год выпуска диска: 2004
Производитель диска: USA
Лейбл: Tzadik (Radical Jewish Culture)
Аудио кодек: APE
Тип рипа: image+.cue
Битрейт аудио: lossless
Продолжительность: 53 min
Трэклист:
Great Jewish Music: Jacob do Bandolim
1. Noites Cariocas - Cyro Baptista
2. Perolas - Ben Perowsky
3. Assanhado - Rob Burger/Mauro Refosco
4. Reminiscenscias - Rashanim
5. Migalhas de Amor - Anat Cohen
6. Sapeca - Pharoah's Daughter
7. Santa Morena - Shanir Ezra Blumenkranz
8. Receita de Samba - Davka
9. Falta Me Voce - 2 Foot Yard
10. Sempre Teu - Tim Sparks
11. Mimosa - Carol Emanuel
12. Ciumento - Jamie Saft
Доп. информация: Рип сделан с оригинального CD... Картинки прилагаются...
 
from Tzadik Label
One of the founders of the Brazilian instrumental style choro, Jacob do Bandolim began his long musical career by plucking his violin with a hairpin, and very soon developed into the greatest mandolin virtuoso Brazil has ever known. His compositions virtually defined the choro style through the thirties, forties and fifties, and he remains one of the most endearing figures in Brazilian music to this day. This exciting tribute to one of Brazil's greatest Jewish composers features creative arrangements by Tzadik regulars ranging from the traditional to the experimental. Charming and powerful music with a sensual lyricism from one of the guiding lights of the Jewish Diaspora.
 
EAC Log
Exact Audio Copy V0.99 prebeta 4 from 23. January 2008
EAC extraction logfile from 23. August 2009, 19:58
VA / Great Jewish Music: Jacob De Bandolim
Used drive : TSSTcorpCD/DVDW SH-W162C Adapter: 0 ID: 0
Read mode : Secure
Utilize accurate stream : Yes
Defeat audio cache : Yes
Make use of C2 pointers : No
Read offset correction : 6
Overread into Lead-In and Lead-Out : No
Fill up missing offset samples with silence : Yes
Delete leading and trailing silent blocks : No
Null samples used in CRC calculations : Yes
Used interface : Installed external ASPI interface
Used output format : Internal WAV Routines
Sample format : 44.100 Hz; 16 Bit; Stereo
TOC of the extracted CD
Track | Start | Length | Start sector | End sector
---------------------------------------------------------
1 | 0:00.00 | 3:05.72 | 0 | 13946
2 | 3:05.72 | 4:46.36 | 13947 | 35432
3 | 7:52.33 | 3:27.57 | 35433 | 51014
4 | 11:20.15 | 5:41.62 | 51015 | 76651
5 | 17:02.02 | 5:08.38 | 76652 | 99789
6 | 22:10.40 | 4:00.44 | 99790 | 117833
7 | 26:11.09 | 3:26.43 | 117834 | 133326
8 | 29:37.52 | 2:49.53 | 133327 | 146054
9 | 32:27.30 | 6:28.69 | 146055 | 175223
10 | 38:56.24 | 4:44.60 | 175224 | 196583
11 | 43:41.09 | 3:28.43 | 196584 | 212226
12 | 47:09.52 | 5:34.54 | 212227 | 237330
Range status and errors
Selected range
Filename C:\Various Artists (2004) Great Jewish Music Jacob De Bandolim\Various Artists - Great Jewish Music Jacob De Bandolim.wav
Peak level 100.0 %
Range quality 99.9 %
Copy CRC 332C81A7
Copy OK
No errors occurred
End of status report
Мои раздачи
Download available for power users only.
07:28
188
Нет комментариев. Ваш будет первым!