Поиск

(Avant-Garde Jazz / Weird Jazz / Klezmer Jazz / Jazz-Rock) The Crushing Spiral Ensemble - Pictures of an Inhibition - 1999, FLAC (image+.cue), lossless

Треклист:
The Crushing Spiral Ensemble - Pictures of an Inhibition
Жанр: Avant-Garde Jazz / Weird Jazz / Klezmer Jazz / Jazz-Rock
Год выпуска диска: 1999
Производитель диска: USA
Аудио кодек: FLAC
Тип рипа: image+.cue
Битрейт аудио: lossless
Трэклист:
 
скрытый текст
1.Bilkamejno 3:42
2.Songs of a Wayfarer's Melancholy of Party Down You Boogie Fiend 3:52
3.Bass Player Logic 8:05
4.Weird Clowns 5:21
5.Staggerman 9:20
6.Memories from the Wheelchair 3:44
7.Zoltan 7:30
8.Dear Someone 1:43
9.Are You for Me 3:45
10.A Couple of Imperfect and on the Spot Vinyets for Solo Bass 3:52
Доп. информация:
 
Line-up
Matt Small - bass
Wes Anderson - drums
Sheldon Brown - clarinet, flute, and bass clarinet
Jenny Scheinman - violin
Tom Yoder - trombone
http://www.mattsmall.org/hear_crushing.html
http://www.mattsmall.org/about_crushing.html
http://www.fearofablankplanet.com/artists/jazz/weird_jazz/the_crushing_spiral_ens..._inhibition.html
Рип с оригинального диска из собственной коллекции, сканы прилагаются.
 
Отчёт EAC
Exact Audio Copy V0.99 prebeta 3 from 28. July 2007
Отчёт EAC об извлечении, выполненном 19. августа 2009, 22:42
The Crushing Spiral Ensemble / Pictures of an Inhibition
Дисковод: _NEC DVD_RW ND-3540A Adapter: 3 ID: 1
Режим чтения : Достоверность
Использование точного потока : Да
Отключение кэша аудио : Да
Использование указателей C2 : Нет
Коррекция смещения при чтении : 48
Способность читать области Lead-in и Lead-out : Нет
Заполнение пропущенных сэмплов тишиной : Да
Удаление блоков с тишиной в начале и конце : Нет
При вычислениях CRC использовались нулевые сэмплы : Да
Интерфейс : Установленный внешний ASPI-интерфейс
Выходной формат : Пользовательский кодировщик
Выбранный битрейт : 768 kBit/s
Качество : Высокий
Добавление ID3-тэга : Нет
Утилита сжатия : D:\БЫВШИЙ G\Program Files\Exact Audio Copy\FLAC\FLAC.EXE
Дополнительные параметры : -6 -V -T "ARTIST=%a" -T "TITLE=%t" -T "ALBUM=%g" -T "DATE=%y" -T "TRACKNUMBER=%n" -T "GENRE=%m" -T "COMMENT=%e" %s -o %d
TOC извлечённого CD
Трек | Старт | Длительность | Начальный сектор | Конечный сектор
---------------------------------------------------------------------
1 | 0:00.00 | 3:42.30 | 0 | 16679
2 | 3:42.30 | 3:52.30 | 16680 | 34109
3 | 7:34.60 | 8:05.42 | 34110 | 70526
4 | 15:40.27 | 5:21.58 | 70527 | 94659
5 | 21:02.10 | 9:20.25 | 94660 | 136684
6 | 30:22.35 | 3:44.38 | 136685 | 153522
7 | 34:06.73 | 7:30.44 | 153523 | 187316
8 | 41:37.42 | 1:43.05 | 187317 | 195046
9 | 43:20.47 | 3:45.28 | 195047 | 211949
10 | 47:06.00 | 3:52.04 | 211950 | 229353
11 | 50:58.04 | 2:35.48 | 229354 | 241026
12 | 53:33.52 | 0:35.11 | 241027 | 243662
13 | 54:08.63 | 0:53.39 | 243663 | 247676
14 | 55:02.27 | 0:21.58 | 247677 | 249309
15 | 55:24.10 | 0:44.41 | 249310 | 252650
16 | 56:08.51 | 2:11.24 | 252651 | 262499
Характеристики диапазона извлечения и сообщения об ошибках
Выбранный диапазон
Имя файла G:\The Crushing Spiral Ensemble - Pictures of an Inhibition\The Crushing Spiral Ensemble - Pictures of an Inhibition.wav
Пиковый уровень 100.0 %
Качество диапазона 100.0 %
CRC копии 051328B6
Копирование... OK
Ошибок не произошло
Конец отчёта
07:27
272
Нет комментариев. Ваш будет первым!