Поиск

(Avant-Garde Jazz / Klezmer Jazz / Jazz-Rock) The Crushing Spiral Ensemble - The Count of San Francisco - 2000, FLAC (image+.cue), lossless

Треклист:
The Crushing Spiral Ensemble - The Count of San Francisco
Жанр: Avant-Garde Jazz / Klezmer Jazz / Jazz-Rock
Год выпуска диска: 2000
Производитель диска: USA
Аудио кодек: FLAC
Тип рипа: image+.cue
Битрейт аудио: lossless
Трэклист:
 
скрытый текст
1.Elegant Spy 7:39
2.Ugly Diva 5:54
3.The House at Auteuil 1:47
4.The Abbe's Chamber 2:55
5.Chess with Demons 4:55
6.The Fall of You 4:56
7.The Ogre of Corsica 4:55
8.Roman Bandits 4:24
9.A Conjugle Scene 3:12
10.The Room of the Retired Baker 1:18
11.The Cemetery of Pere Lachiase 2:05
12.The 5th of October 2:54
Доп. информация:
 
Line-up
Matt Small - bass
Wes Anderson - drums
Steve Adams - tenor and soprano saxophones
Phillip Greenlief - alto and soprano saxophones
Tom Yoder – trombone
http://www.mattsmall.org/hear_crushing.html
http://www.mattsmall.org/about_crushing.html
Рип с оригинального диска из собственной коллекции, сканы прилагаются.
 
Отчёт EAC
Exact Audio Copy V0.99 prebeta 3 from 28. July 2007
Отчёт EAC об извлечении, выполненном 19. августа 2009, 22:18
The Crushing Spiral Ensemble / The Count of San Francisco
Дисковод: _NEC DVD_RW ND-3540A Adapter: 3 ID: 1
Режим чтения : Достоверность
Использование точного потока : Да
Отключение кэша аудио : Да
Использование указателей C2 : Нет
Коррекция смещения при чтении : 48
Способность читать области Lead-in и Lead-out : Нет
Заполнение пропущенных сэмплов тишиной : Да
Удаление блоков с тишиной в начале и конце : Нет
При вычислениях CRC использовались нулевые сэмплы : Да
Интерфейс : Установленный внешний ASPI-интерфейс
Выходной формат : Пользовательский кодировщик
Выбранный битрейт : 768 kBit/s
Качество : Высокий
Добавление ID3-тэга : Нет
Утилита сжатия : D:\БЫВШИЙ G\Program Files\Exact Audio Copy\FLAC\FLAC.EXE
Дополнительные параметры : -6 -V -T "ARTIST=%a" -T "TITLE=%t" -T "ALBUM=%g" -T "DATE=%y" -T "TRACKNUMBER=%n" -T "GENRE=%m" -T "COMMENT=%e" %s -o %d
TOC извлечённого CD
Трек | Старт | Длительность | Начальный сектор | Конечный сектор
---------------------------------------------------------------------
1 | 0:00.37 | 7:39.06 | 37 | 34467
2 | 7:39.43 | 5:54.63 | 34468 | 61080
3 | 13:34.31 | 1:47.73 | 61081 | 69178
4 | 15:22.29 | 2:55.40 | 69179 | 82343
5 | 18:17.69 | 4:55.52 | 82344 | 104520
6 | 23:13.46 | 4:56.24 | 104521 | 126744
7 | 28:09.70 | 4:55.16 | 126745 | 148885
8 | 33:05.11 | 4:24.14 | 148886 | 168699
9 | 37:29.25 | 3:12.42 | 168700 | 183141
10 | 40:41.67 | 1:18.17 | 183142 | 189008
11 | 42:00.09 | 2:05.45 | 189009 | 198428
12 | 44:05.54 | 2:54.55 | 198429 | 211533
Характеристики диапазона извлечения и сообщения об ошибках
Выбранный диапазон
Имя файла G:\The Crushing Spiral Ensemble - The Count of San Francisco\The Crushing Spiral Ensemble - The Count of San Francisco.wav
Пиковый уровень 98.8 %
Качество диапазона 99.9 %
CRC копии 6D3D8468
Копирование... OK
Ошибок не произошло
Конец отчёта
08:27
327
Нет комментариев. Ваш будет первым!