Поиск

(Jazz/Bossa Nova) Caetano Veloso - Fina Estampa (Ao Vivo) - 1995, FLAC (tracks+.cue), lossless

(Jazz/Bossa Nova) Caetano Veloso - Fina Estampa (Ao Vivo) - 1995, FLAC (tracks+.cue), lossless
Треклист:
Caetano Veloso - Fina Estampa (Ao Vivo)
Жанр:Jazz/Bossa Nova
Год выпуска диска: 1995
Производитель диска: PolyGram
Аудио кодек: FLAC
Тип рипа: 1 track +.cue
Битрейт аудио: lossless
Продолжительность: 62:43:20
Трэклист:
1.O Samba E O Tango (Amado Regis) 3:43
2.Lamento Borincano (Rafael Hernández) 6:38
3.Fina Estampa (Chabuca Granda) 2:51
4.Cucurrucucú Paloma (Tomás Mendez) 3:55
5.Haiti (Gilberto Gil/Caetano Veloso) 4:49
6.Cancao de Amor (Chocolate/Elano De Paula) 2:34
7.Suas Maos (Antonio Maria/Pernambuco) 2:46
8.Labios Que Beijei (Leonel Azevedo/Alvaro Nunes) 4:02
9.Voce Esteve Com Meu Bem? (Joao Gilberto/Antonio Martínez) 2:46
10.Vete de Mi (Virgilio Exposito/Homero Exposito) 2:56
11.La Barca (Roberto Cantoral) 4:59
12.Ay, Amor! (Ignacio Villa) 2:52
13.O Pulsar (Augusto De Campos/Caetano Veloso) 2:22
14.Contigo en la Distancia (César Portillo De La Luz) 3:36
15.Itapua (Caetano Veloso) 4:48
16.Soy Loco por Ti, América (Capinam/Gilberto Gil) 6:57
17.Tonada de Luna Llena (Simón Díaz) 2:42
Доп. информация: Исполнители:
Zeca Assumpção: контрабасс
Marcelo Costa: ударные
Luiz Brasil: гитара и голос
Jaques Morelenbaum: виолончель, оранжировка
Mingo Araújo: ударные
Jota Moraes: пянино
Caetano Veloso: гитара, голос
и Оркестр
Запись в живую в Метрополитане, Рио (сентябрь 1995г)
Log XLD
 
скрытый текст
X Lossless Decoder version 20090320 (105.1)
XLD extraction logfile from 2009-08-19 13:41:45 -0300
Caetano Veloso / Fina Estampa - Ao Vivo
Used drive : MATSHITA DVD-R UJ-845E (revision DMP2)
Use cdparanoia mode : YES (CDParanoia III 10.2 engine)
Disable audio cache : OK for the drive with cache less than 2750KB
Make use of C2 pointers : NO
Read offset correction : 102
Max retry count : 100
TOC of the extracted CD
Track | Start | Length | Start sector | End sector
---------------------------------------------------------
1 | 00:00:00 | 03:44:07 | 0 | 16806
2 | 03:44:07 | 06:38:65 | 16807 | 46721
3 | 10:22:72 | 02:51:28 | 46722 | 59574
4 | 13:14:25 | 03:55:00 | 59575 | 77199
5 | 17:09:25 | 04:49:65 | 77200 | 98939
6 | 21:59:15 | 02:34:67 | 98940 | 110556
7 | 24:34:07 | 02:46:73 | 110557 | 123079
8 | 27:21:05 | 04:02:07 | 123080 | 141236
9 | 31:23:12 | 02:46:43 | 141237 | 153729
10 | 34:09:55 | 02:57:12 | 153730 | 167016
11 | 37:06:67 | 04:58:55 | 167017 | 189421
12 | 42:05:47 | 02:52:55 | 189422 | 202376
13 | 44:58:27 | 02:22:05 | 202377 | 213031
14 | 47:20:32 | 03:36:63 | 213032 | 229294
15 | 50:57:20 | 04:48:37 | 229295 | 250931
16 | 55:45:57 | 06:57:38 | 250932 | 282244
17 | 62:43:20 | 02:42:50 | 282245 | 294444
All Tracks
Filename : /Users/anamaria/Desktop/Fina Estampa/Fina Estampa - Ao Vivo.flac
CRC32 hash : 58D5B98A
CRC32 hash (skip zero) : 4C33CCB0
Statistics
Read error : 0
Skipped (treated as error) : 0
Edge jitter error (maybe fixed) : 78
Atom jitter error (maybe fixed) : 1249
Drift error (maybe fixed) : 0
Dropped bytes error (maybe fixed) : 112
Duplicated bytes error (maybe fixed) : 50
Track 01
CRC32 hash : 395EBE08
CRC32 hash (skip zero) : F30FF19D
AccurateRip signature : 5A22EB36
->Track not present in AccurateRip database.
Statistics
Read error : 0
Skipped (treated as error) : 0
Edge jitter error (maybe fixed) : 0
Atom jitter error (maybe fixed) : 0
Drift error (maybe fixed) : 0
Dropped bytes error (maybe fixed) : 0
Duplicated bytes error (maybe fixed) : 0
Track 02
CRC32 hash : C306F36D
CRC32 hash (skip zero) : BD4D9949
AccurateRip signature : 3B85F4BC
->Track not present in AccurateRip database.
Statistics
Read error : 0
Skipped (treated as error) : 0
Edge jitter error (maybe fixed) : 0
Atom jitter error (maybe fixed) : 0
Drift error (maybe fixed) : 0
Dropped bytes error (maybe fixed) : 0
Duplicated bytes error (maybe fixed) : 0
Track 03
CRC32 hash : DB3AA15E
CRC32 hash (skip zero) : C9FE788F
AccurateRip signature : 7B9DB0A5
->Track not present in AccurateRip database.
Statistics
Read error : 0
Skipped (treated as error) : 0
Edge jitter error (maybe fixed) : 0
Atom jitter error (maybe fixed) : 0
Drift error (maybe fixed) : 0
Dropped bytes error (maybe fixed) : 0
Duplicated bytes error (maybe fixed) : 0
Track 04
CRC32 hash : C462EC34
CRC32 hash (skip zero) : 159D90E0
AccurateRip signature : E7632AB6
->Track not present in AccurateRip database.
Statistics
Read error : 0
Skipped (treated as error) : 0
Edge jitter error (maybe fixed) : 0
Atom jitter error (maybe fixed) : 0
Drift error (maybe fixed) : 0
Dropped bytes error (maybe fixed) : 0
Duplicated bytes error (maybe fixed) : 0
Track 05
CRC32 hash : D619B2E8
CRC32 hash (skip zero) : BAAAA59C
AccurateRip signature : ECA7EFF6
->Track not present in AccurateRip database.
Statistics
Read error : 0
Skipped (treated as error) : 0
Edge jitter error (maybe fixed) : 0
Atom jitter error (maybe fixed) : 0
Drift error (maybe fixed) : 0
Dropped bytes error (maybe fixed) : 0
Duplicated bytes error (maybe fixed) : 0
Track 06
CRC32 hash : 247DF80A
CRC32 hash (skip zero) : 093FD6FC
AccurateRip signature : BF8D25CC
->Track not present in AccurateRip database.
Statistics
Read error : 0
Skipped (treated as error) : 0
Edge jitter error (maybe fixed) : 0
Atom jitter error (maybe fixed) : 0
Drift error (maybe fixed) : 0
Dropped bytes error (maybe fixed) : 0
Duplicated bytes error (maybe fixed) : 0
Track 07
CRC32 hash : A47F803D
CRC32 hash (skip zero) : 3BBC0599
AccurateRip signature : FECF6320
->Track not present in AccurateRip database.
Statistics
Read error : 0
Skipped (treated as error) : 0
Edge jitter error (maybe fixed) : 0
Atom jitter error (maybe fixed) : 0
Drift error (maybe fixed) : 0
Dropped bytes error (maybe fixed) : 0
Duplicated bytes error (maybe fixed) : 0
Track 08
CRC32 hash : 944920DC
CRC32 hash (skip zero) : 60D49A13
AccurateRip signature : 2FD5D9C1
->Track not present in AccurateRip database.
Statistics
Read error : 0
Skipped (treated as error) : 0
Edge jitter error (maybe fixed) : 0
Atom jitter error (maybe fixed) : 0
Drift error (maybe fixed) : 0
Dropped bytes error (maybe fixed) : 0
Duplicated bytes error (maybe fixed) : 0
Track 09
CRC32 hash : 694FCB0D
CRC32 hash (skip zero) : A4788D18
AccurateRip signature : 8392D651
->Track not present in AccurateRip database.
Statistics
Read error : 0
Skipped (treated as error) : 0
Edge jitter error (maybe fixed) : 0
Atom jitter error (maybe fixed) : 0
Drift error (maybe fixed) : 0
Dropped bytes error (maybe fixed) : 0
Duplicated bytes error (maybe fixed) : 0
Track 10
CRC32 hash : EEF46F42
CRC32 hash (skip zero) : 5AB46D2A
AccurateRip signature : 0ED8BA9A
->Track not present in AccurateRip database.
Statistics
Read error : 0
Skipped (treated as error) : 0
Edge jitter error (maybe fixed) : 0
Atom jitter error (maybe fixed) : 0
Drift error (maybe fixed) : 0
Dropped bytes error (maybe fixed) : 0
Duplicated bytes error (maybe fixed) : 0
Track 11
CRC32 hash : ECB1B6BD
CRC32 hash (skip zero) : B3EA92C1
AccurateRip signature : 604A7B89
->Track not present in AccurateRip database.
Statistics
Read error : 0
Skipped (treated as error) : 0
Edge jitter error (maybe fixed) : 0
Atom jitter error (maybe fixed) : 0
Drift error (maybe fixed) : 0
Dropped bytes error (maybe fixed) : 0
Duplicated bytes error (maybe fixed) : 0
Track 12
CRC32 hash : FCC4D317
CRC32 hash (skip zero) : 0CDE98E8
AccurateRip signature : 22166930
->Track not present in AccurateRip database.
Statistics
Read error : 0
Skipped (treated as error) : 0
Edge jitter error (maybe fixed) : 0
Atom jitter error (maybe fixed) : 0
Drift error (maybe fixed) : 0
Dropped bytes error (maybe fixed) : 0
Duplicated bytes error (maybe fixed) : 0
Track 13
CRC32 hash : 9CA32F2F
CRC32 hash (skip zero) : EEB8537E
AccurateRip signature : DD01AE5E
->Track not present in AccurateRip database.
Statistics
Read error : 0
Skipped (treated as error) : 0
Edge jitter error (maybe fixed) : 0
Atom jitter error (maybe fixed) : 0
Drift error (maybe fixed) : 0
Dropped bytes error (maybe fixed) : 0
Duplicated bytes error (maybe fixed) : 0
Track 14
CRC32 hash : 1EAB7B25
CRC32 hash (skip zero) : 21E35C0C
AccurateRip signature : D187D265
->Track not present in AccurateRip database.
Statistics
Read error : 0
Skipped (treated as error) : 0
Edge jitter error (maybe fixed) : 0
Atom jitter error (maybe fixed) : 0
Drift error (maybe fixed) : 0
Dropped bytes error (maybe fixed) : 0
Duplicated bytes error (maybe fixed) : 0
Track 15
CRC32 hash : 9BC99FC4
CRC32 hash (skip zero) : 6F6FFA72
AccurateRip signature : 15FA27D4
->Track not present in AccurateRip database.
Statistics
Read error : 0
Skipped (treated as error) : 0
Edge jitter error (maybe fixed) : 0
Atom jitter error (maybe fixed) : 0
Drift error (maybe fixed) : 0
Dropped bytes error (maybe fixed) : 0
Duplicated bytes error (maybe fixed) : 0
Track 16
CRC32 hash : 6F54AB64
CRC32 hash (skip zero) : 29DDA2E9
AccurateRip signature : 654AB95B
->Track not present in AccurateRip database.
Statistics
Read error : 0
Skipped (treated as error) : 0
Edge jitter error (maybe fixed) : 0
Atom jitter error (maybe fixed) : 0
Drift error (maybe fixed) : 0
Dropped bytes error (maybe fixed) : 0
Duplicated bytes error (maybe fixed) : 0
Track 17
CRC32 hash : 378F5755
CRC32 hash (skip zero) : 91853855
AccurateRip signature : 404C5E04
->Track not present in AccurateRip database.
Statistics
Read error : 0
Skipped (treated as error) : 0
Edge jitter error (maybe fixed) : 78
Atom jitter error (maybe fixed) : 1249
Drift error (maybe fixed) : 0
Dropped bytes error (maybe fixed) : 112
Duplicated bytes error (maybe fixed) : 50
No errors occurred
End of status report
CUE
 
скрытый текст
TITLE "Fina Estampa - Ao Vivo"
PERFORMER "Caetano Veloso"
REM GENRE "Latin"
REM DATE 1995
FILE "Fina Estampa - Ao Vivo.flac" WAVE
TRACK 01 AUDIO
TITLE "O Samba E O Tango"
INDEX 01 00:00:00
TRACK 02 AUDIO
TITLE "Lamento Boricano"
INDEX 01 03:44:07
TRACK 03 AUDIO
TITLE "Fina Estampa"
INDEX 01 10:22:72
TRACK 04 AUDIO
TITLE "Cucurrucuc√∫ Paloma"
INDEX 01 13:14:25
TRACK 05 AUDIO
TITLE "Haiti"
INDEX 01 17:09:25
TRACK 06 AUDIO
TITLE "Canção De Amor"
INDEX 01 21:59:15
TRACK 07 AUDIO
TITLE "Suas M√£os"
INDEX 01 24:34:07
TRACK 08 AUDIO
TITLE "L√°bios Que Beijei"
INDEX 01 27:21:05
TRACK 09 AUDIO
TITLE "Você Esteve Com Meu Bem?"
INDEX 01 31:23:12
TRACK 10 AUDIO
TITLE "Vete De Mi"
INDEX 01 34:09:55
TRACK 11 AUDIO
TITLE "La Barca"
INDEX 01 37:06:67
TRACK 12 AUDIO
TITLE "¬°Ay, Amor!"
INDEX 01 42:05:47
TRACK 13 AUDIO
TITLE "O Pulsar"
INDEX 01 44:58:27
TRACK 14 AUDIO
TITLE "Contigo En La Distancia"
INDEX 01 47:20:32
TRACK 15 AUDIO
TITLE "Itapu√£"
INDEX 01 50:57:20
TRACK 16 AUDIO
TITLE "Soy Loco Por Ti, América"
INDEX 01 55:45:57
TRACK 17 AUDIO
TITLE "Tonada De Luna Llena"
INDEX 01 62:43:20
По всем вопросам пишите личное сообщение пользователю M0p94ok.
07:26
161
Нет комментариев. Ваш будет первым!