Поиск

(World Fusion) Olivier Ker Ourio, Ralph Towner, Heiri Kaenzig - Siroko - 2005, FLAC (tracks+.cue), lossless

Треклист:
Olivier Ker Ourio, Ralph Towner, Heiri Kaenzig - Siroko
Жанр: World Fusion
Год выпуска диска: 2005
Производитель диска: Германия (e-motive records)
Аудио кодек: FLAC
Тип рипа: tracks+.cue
Битрейт аудио: lossless
Продолжительность: 54:01.413 (142946328 samples)
Трэклист:
1. bellydancing
2. tramonto
3. siroko
4. seascape
5. goodbye pork pie hat
6. fun key
7. elm
8. payanke
9. everybody's song but my own
10. syracuse
 
Отчёт EAC
Exact Audio Copy V0.99 prebeta 4 from 23. January 2008
EAC extraction logfile from 2. March 2009, 10:16
Olivier Ker Ourio Ralph Towner Heiri Kaenzig / Siroko
Used drive : _NEC DVD_RW ND-3500AG Adapter: 0 ID: 1
Read mode : Secure
Utilize accurate stream : Yes
Defeat audio cache : Yes
Make use of C2 pointers : No
Read offset correction : 48
Overread into Lead-In and Lead-Out : No
Fill up missing offset samples with silence : Yes
Delete leading and trailing silent blocks : No
Null samples used in CRC calculations : Yes
Used interface : Native Win32 interface for Win NT & 2000
Gap handling : Appended to previous track
Used output format : User Defined Encoder
Selected bitrate : 128 kBit/s
Quality : High
Add ID3 tag : No
Command line compressor : C:\Program Files\FLAC\flac.exe
Additional command line options : -8 -V -T "ARTIST=%a" -T "TITLE=%t" -T "ALBUM=%g" -T "DATE=%y" -T "TRACKNUMBER=%n" -T "GENRE=%m" -T "COMMENT=EAC FLAC -8" %s
TOC of the extracted CD
Track | Start | Length | Start sector | End sector
---------------------------------------------------------
1 | 0:00.00 | 6:37.55 | 0 | 29829
2 | 6:37.55 | 4:56.00 | 29830 | 52029
3 | 11:33.55 | 5:54.58 | 52030 | 78637
4 | 17:28.38 | 5:47.60 | 78638 | 104722
5 | 23:16.23 | 5:20.11 | 104723 | 128733
6 | 28:36.34 | 2:11.48 | 128734 | 138606
7 | 30:48.07 | 5:24.43 | 138607 | 162949
8 | 36:12.50 | 5:09.64 | 162950 | 186188
9 | 41:22.39 | 6:27.14 | 186189 | 215227
10 | 47:49.53 | 6:11.53 | 215228 | 243105
Track 1
Filename P:\DL temp\Olivier Ker Ourio Ralph Towner Heiri Kaenzig - Siroko (2005) [FLAC]\01 - Bellydancing.wav
Pre-gap length 0:00:02.00
Peak level 98.8 %
Track quality 100.0 %
Test CRC C5F4D063
Copy CRC C5F4D063
Track not present in AccurateRip database
Copy OK
Track 2
Filename P:\DL temp\Olivier Ker Ourio Ralph Towner Heiri Kaenzig - Siroko (2005) [FLAC]\02 - Tramonto.wav
Pre-gap length 0:00:02.34
Peak level 98.8 %
Track quality 100.0 %
Test CRC 736A1045
Copy CRC 736A1045
Track not present in AccurateRip database
Copy OK
Track 3
Filename P:\DL temp\Olivier Ker Ourio Ralph Towner Heiri Kaenzig - Siroko (2005) [FLAC]\03 - Siroko.wav
Pre-gap length 0:00:03.21
Peak level 98.8 %
Track quality 100.0 %
Test CRC F1621D34
Copy CRC F1621D34
Track not present in AccurateRip database
Copy OK
Track 4
Filename P:\DL temp\Olivier Ker Ourio Ralph Towner Heiri Kaenzig - Siroko (2005) [FLAC]\04 - Seascape.wav
Pre-gap length 0:00:03.32
Peak level 98.8 %
Track quality 100.0 %
Test CRC EE4207BD
Copy CRC EE4207BD
Track not present in AccurateRip database
Copy OK
Track 5
Filename P:\DL temp\Olivier Ker Ourio Ralph Towner Heiri Kaenzig - Siroko (2005) [FLAC]\05 - Goodbye Pork Pie Hat.wav
Pre-gap length 0:00:02.56
Peak level 98.8 %
Track quality 100.0 %
Test CRC D9E317AB
Copy CRC D9E317AB
Track not present in AccurateRip database
Copy OK
Track 6
Filename P:\DL temp\Olivier Ker Ourio Ralph Towner Heiri Kaenzig - Siroko (2005) [FLAC]\06 - Fun Key.wav
Peak level 98.8 %
Track quality 100.0 %
Test CRC 37F95F4B
Copy CRC 37F95F4B
Track not present in AccurateRip database
Copy OK
Track 7
Filename P:\DL temp\Olivier Ker Ourio Ralph Towner Heiri Kaenzig - Siroko (2005) [FLAC]\07 - Elm.wav
Pre-gap length 0:00:02.38
Peak level 98.8 %
Track quality 100.0 %
Test CRC 0723784C
Copy CRC 0723784C
Track not present in AccurateRip database
Copy OK
Track 8
Filename P:\DL temp\Olivier Ker Ourio Ralph Towner Heiri Kaenzig - Siroko (2005) [FLAC]\08 - Payanke.wav
Pre-gap length 0:00:02.50
Peak level 98.8 %
Track quality 100.0 %
Test CRC 5CB4D07D
Copy CRC 5CB4D07D
Track not present in AccurateRip database
Copy OK
Track 9
Filename P:\DL temp\Olivier Ker Ourio Ralph Towner Heiri Kaenzig - Siroko (2005) [FLAC]\09 - Everybody's song but my own.wav
Pre-gap length 0:00:01.32
Peak level 98.8 %
Track quality 99.9 %
Test CRC 7AEB2A63
Copy CRC 7AEB2A63
Track not present in AccurateRip database
Copy OK
Track 10
Filename P:\DL temp\Olivier Ker Ourio Ralph Towner Heiri Kaenzig - Siroko (2005) [FLAC]\10 - Syracuse.wav
Peak level 98.8 %
Track quality 100.0 %
Test CRC 16BBDF5B
Copy CRC 16BBDF5B
Track not present in AccurateRip database
Copy OK
None of the tracks are present in the AccurateRip database
No errors occurred
End of status report
Дополнительно
08:29
335
Нет комментариев. Ваш будет первым!