Поиск

(World Fusion) Mokave - Volume 1 - 1991, FLAC (image+.cue), lossless

(World Fusion) Mokave - Volume 1 - 1991, FLAC (image+.cue), lossless
Треклист:
Mokave - Volume 1
Жанр: Jazz
Год выпуска диска: 1991
Производитель диска: USA
Аудио кодек: FLAC
Тип рипа: image+.cue
Битрейт аудио: lossless
Продолжительность: 53:05
Glen Moore bass
Larry Karush piano
Glen Velez frame drums, percussion
Rainland
Why Can't Be
Tar
Oceanus
Leather Cats
Song for the New City
At Play in the Fields
In a Sentimental Mode
Abstinence
A La Fatha
 
EAC Report
Exact Audio Copy V0.99 prebeta 4 from 23. January 2008
EAC extraction logfile from 5. April 2008, 13:11
Glen Moore, Larry Karush, Glen Velez / Mokave, Volume 1
Used drive : MATSHITADVD-RAM UJ-840S Adapter: 1 ID: 0
Read mode : Secure
Utilize accurate stream : Yes
Defeat audio cache : Yes
Make use of C2 pointers : No
Read offset correction : 102
Overread into Lead-In and Lead-Out : No
Fill up missing offset samples with silence : Yes
Delete leading and trailing silent blocks : No
Null samples used in CRC calculations : No
Used interface : Installed external ASPI interface
Used output format : User Defined Encoder
Selected bitrate : 1024 kBit/s
Quality : High
Add ID3 tag : No
Command line compressor : C:\Program Files\Exact Audio Copy\FLAC\FLAC.EXE
Additional command line options : -6 -V -T "ARTIST=%a" -T "TITLE=%t" -T "ALBUM=%g" -T "DATE=%y" -T "TRACKNUMBER=%n" -T "GENRE=%m" -T "COMMENT=%e" %s -o %d
TOC of the extracted CD
Track | Start | Length | Start sector | End sector
---------------------------------------------------------
1 | 0:00.00 | 4:56.55 | 0 | 22254
2 | 4:56.55 | 4:04.05 | 22255 | 40559
3 | 9:00.60 | 3:33.57 | 40560 | 56591
4 | 12:34.42 | 4:48.60 | 56592 | 78251
5 | 17:23.27 | 6:09.15 | 78252 | 105941
6 | 23:32.42 | 5:30.05 | 105942 | 130696
7 | 29:02.47 | 6:34.38 | 130697 | 160284
8 | 35:37.10 | 6:29.67 | 160285 | 189526
9 | 42:07.02 | 6:37.20 | 189527 | 219321
10 | 48:44.22 | 4:21.10 | 219322 | 238906
Range status and errors
Selected range
Filename F:\u\Mokave - Volume 1.wav
Peak level 100.0 %
Range quality 99.9 %
Copy CRC 32A94E17
Copy OK
No errors occurred
AccurateRip summary
Track 1 not present in database
Track 2 not present in database
Track 3 not present in database
Track 4 not present in database
Track 5 not present in database
Track 6 not present in database
Track 7 not present in database
Track 8 not present in database
Track 9 not present in database
Track 10 not present in database
None of the tracks are present in the AccurateRip database
End of status report

02:16
314
Нет комментариев. Ваш будет первым!