Поиск

(Jazz) Trilok Gurtu - African Fantasy - 2000, FLAC (image+.cue), lossless

(Jazz) Trilok Gurtu - African Fantasy - 2000, FLAC (image+.cue), lossless
Треклист:
Trilok Gurtu - African Fantasy
Жанр: Jazz
Год выпуска диска: 2000
Производитель диска: Netherlands
Аудио кодек: FLAC
Тип рипа: image+.cue
Битрейт аудио: lossless
Продолжительность: 55:10
Trilok Gurtu tabla, drums, percussion, timpani, clay pot
Ravi Chary sitar, harmonium
Nicolas Fiszman bass, lead guitar, synth
Jaya Deva gimbri, guitar,
Kai Eckhardt de Camargo bass
Dhruba Ghish sarangi
Sabine Kabongo vocals
Esmeralda Sciascia vocals
with special guests:
Angelique Kidjo
Oumou Sangare
1 Rajasthan
2 DJ Didgeridoo
3 African Fantasy
4 You, Remember This
5 Big Brother
6 Folded Hands
7 Old African
8 Lisa
9 Dinki Puriya
10 Africa con India
11 Big Brother Reprise

 
EAC Report
Exact Audio Copy V0.99 prebeta 4 from 23. January 2008
EAC extraction logfile from 23. June 2008, 0:03
Trilok Gurtu / African Fantasy
Used drive : TSSTcorpCD/DVDW SH-S182M Adapter: 2 ID: 1
Read mode : Secure
Utilize accurate stream : Yes
Defeat audio cache : Yes
Make use of C2 pointers : No
Read offset correction : 6
Overread into Lead-In and Lead-Out : No
Fill up missing offset samples with silence : Yes
Delete leading and trailing silent blocks : No
Null samples used in CRC calculations : No
Used interface : Installed external ASPI interface
Used output format : User Defined Encoder
Selected bitrate : 768 kBit/s
Quality : High
Add ID3 tag : No
Command line compressor : C:\Program Files\Exact Audio Copy\FLAC\FLAC.EXE
Additional command line options : -6 -V -T "ARTIST=%a" -T "TITLE=%t" -T "ALBUM=%g" -T "DATE=%y" -T "TRACKNUMBER=%n" -T "GENRE=%m" -T "COMMENT=%e" %s -o %d
TOC of the extracted CD
Track | Start | Length | Start sector | End sector
---------------------------------------------------------
1 | 0:00.00 | 5:54.10 | 0 | 26559
2 | 5:54.10 | 4:53.39 | 26560 | 48573
3 | 10:47.49 | 4:05.17 | 48574 | 66965
4 | 14:52.66 | 3:38.48 | 66966 | 83363
5 | 18:31.39 | 4:32.43 | 83364 | 103806
6 | 23:04.07 | 7:43.02 | 103807 | 138533
7 | 30:47.09 | 6:10.29 | 138534 | 166312
8 | 36:57.38 | 6:19.68 | 166313 | 194805
9 | 43:17.31 | 3:02.22 | 194806 | 208477
10 | 46:19.53 | 4:30.19 | 208478 | 228746
11 | 50:49.72 | 4:20.19 | 228747 | 248265
Range status and errors
Selected range
Filename F:\z\Trilok Gurtu - African Fantasy.wav
Peak level 100.0 %
Range quality 100.0 %
Copy CRC A560CF46
Copy OK
No errors occurred
AccurateRip summary
Track 1 accurately ripped (confidence 1) [359D24B8]
Track 2 accurately ripped (confidence 1) [4D08C4C9]
Track 3 accurately ripped (confidence 1) [D4BECF3D]
Track 4 accurately ripped (confidence 1) [50E517E1]
Track 5 accurately ripped (confidence 1) [3B6273DE]
Track 6 accurately ripped (confidence 1) [572FF089]
Track 7 accurately ripped (confidence 1) [6DA882F8]
Track 8 accurately ripped (confidence 1) [E200B354]
Track 9 accurately ripped (confidence 1) [EB4089FF]
Track 10 accurately ripped (confidence 1) [500BBB80]
Track 11 accurately ripped (confidence 1) [45DE32F0]
All tracks accurately ripped
End of status report
ТОРРЕНТ ПЕРЕЗАЛИТ 24.05.2017, 16:55 МСК по техническим причинам. Содержимое не менялось.
Просьба ко всем ранее скачавшим, присоединяться к раздаче.
03:15
404
Нет комментариев. Ваш будет первым!