Поиск

(World Fusion, Modern Creative, Balkan Jazz) [CD] Matt Darriau Paradox Trio with Bojan Z. - Matt Darriau Paradox Trio with Bojan Z. - 2010, FLAC (tracks+.cue), lossless

(World Fusion, Modern Creative, Balkan Jazz) [CD] Matt Darriau Paradox Trio with Bojan Z. - Matt Darriau Paradox Trio with Bojan Z. - 2010, FLAC (tracks+.cue), lossless
Треклист:
Matt Darriau Paradox Trio with Bojan Z. / Matt Darriau Paradox Trio with Bojan Z.
Жанр: World Fusion, Modern Creative, Balkan Jazz
Носитель: CD
Страна-производитель диска: Italy
Год издания: 2010
Издатель (лейбл): Felmay
Номер по каталогу: fy 7032
Аудиокодек: FLAC (*.flac)
Тип рипа: tracks+.cue
Битрейт аудио: lossless
Продолжительность: 49:56
Источник (релизер): я
Наличие сканов в содержимом раздачи: нет
Треклист:
1. Zdravo (Brad Shepik) 4:22
2. Faux Clarinet with Glass (Matt Darriau) 6:51
3. Taipan (Matt Darriau) 9:02
4. La Petite Gitane (Cigancica) (trad. / arr. by Bojan Zulfikarpašić) 5:33
5. Oj ti momče Ohriđanče (trad. / arr. by Bojan Zulfikarpašić) 8:03
6. Pomegranate (Brad Shepik) 4:58
7. The Turk from Downtown (Seido Salifoski) 8:08
8. October Gaida (Matt Darriau) 2:59
All tracks recorded at 58N6th Media labs, Brooklyn, NY, September 19/20th, 2008, except track 7 recorded at Dalton Recording Studio, The Netherlands.
Matt Darriau – Saxes, Clarinet, Faux Clarinet (#2), Bulgarian Kaval (#5), Bulgarian Gaida (#8)
Bojan Zulfikarpašić – Piano
Brad Shepik – Guitar, Bulgarian Tambura (#2, 3, 5)
Rufus Cappadocia – 5-String Cello, Baritone Guitar (#2)
Seido Salifoski – Dumbeks & Percussion
And Katie Down – Glass Vessels (#2)
 
Лог создания рипа
Exact Audio Copy V1.0 beta 3 from 29. August 2011
EAC extraction logfile from 25. December 2013, 20:44
Matt Darriau Paradox Trio with Bojan Z. / Matt Darriau Paradox Trio with Bojan Z.
Used drive : SlimtypeeNAU508 5 Adapter: 1 ID: 0
Read mode : Secure
Utilize accurate stream : Yes
Defeat audio cache : Yes
Make use of C2 pointers : No
Read offset correction : 6
Overread into Lead-In and Lead-Out : No
Fill up missing offset samples with silence : Yes
Delete leading and trailing silent blocks : No
Null samples used in CRC calculations : Yes
Used interface : Native Win32 interface for Win NT & 2000
Gap handling : Appended to previous track
Used output format : User Defined Encoder
Selected bitrate : 768 kBit/s
Quality : High
Add ID3 tag : No
Command line compressor : C:\Program Files (x86)\Exact Audio Copy\Flac\flac.exe
Additional command line options : -8 -V -T "ARTIST=%artist%" -T "TITLE=%title%" -T "ALBUM=%albumtitle%" -T "DATE=%year%" -T "TRACKNUMBER=%tracknr%" -T "GENRE=%genre%" -T "PERFORMER=%albuminterpret%" -T "COMPOSER=%composer%" %haslyrics%--tag-from-file=LYRICS="%lyricsfile%"%haslyrics% -T "ALBUMARTIST=%albumartist%" -T "DISCNUMBER=%cdnumber%" -T "TOTALDISCS=%totalcds%" -T "TOTALTRACKS=%numtracks%" -T "COMMENT=%comment%" %source% -o %dest%
TOC of the extracted CD
Track | Start | Length | Start sector | End sector
---------------------------------------------------------
1 | 0:00.00 | 4:21.55 | 0 | 19629
2 | 4:21.55 | 6:50.58 | 19630 | 50437
3 | 11:12.38 | 9:02.34 | 50438 | 91121
4 | 20:14.72 | 5:33.01 | 91122 | 116097
5 | 25:47.73 | 8:02.55 | 116098 | 152302
6 | 33:50.53 | 4:58.26 | 152303 | 174678
7 | 38:49.04 | 8:07.39 | 174679 | 211242
8 | 46:56.43 | 2:58.74 | 211243 | 224666
Track 1
Filename C:\EAC rips\01 - Zdravo.wav
Pre-gap length 0:00:02.00
Peak level 98.7 %
Extraction speed 2.3 X
Track quality 100.0 %
Test CRC FB8D1490
Copy CRC FB8D1490
Accurately ripped (confidence 2) [74F1DB01] (AR v2)
Copy OK
Track 2
Filename C:\EAC rips\02 - Faux Clarinet with Glass.wav
Pre-gap length 0:00:01.00
Peak level 98.7 %
Extraction speed 2.7 X
Track quality 100.0 %
Test CRC A9A7E688
Copy CRC A9A7E688
Accurately ripped (confidence 2) [E8B9F97C] (AR v2)
Copy OK
Track 3
Filename C:\EAC rips\03 - Taipan.wav
Pre-gap length 0:00:01.15
Peak level 98.7 %
Extraction speed 2.9 X
Track quality 99.9 %
Test CRC B6288E72
Copy CRC B6288E72
Accurately ripped (confidence 2) [8B513D5E] (AR v2)
Copy OK
Track 4
Filename C:\EAC rips\04 - La Petite Gitane (Cigancica).wav
Pre-gap length 0:00:01.15
Peak level 98.7 %
Extraction speed 3.3 X
Track quality 100.0 %
Test CRC B924FBC3
Copy CRC B924FBC3
Accurately ripped (confidence 2) [BE02FA53] (AR v2)
Copy OK
Track 5
Filename C:\EAC rips\05 - Oj ti momce Ohridance.wav
Peak level 95.4 %
Extraction speed 3.4 X
Track quality 99.9 %
Test CRC CCCA53A3
Copy CRC CCCA53A3
Accurately ripped (confidence 2) [72F4C8FB] (AR v2)
Copy OK
Track 6
Filename C:\EAC rips\06 - Pomegranate.wav
Peak level 98.7 %
Extraction speed 3.8 X
Track quality 100.0 %
Test CRC 4E442EE4
Copy CRC 4E442EE4
Accurately ripped (confidence 2) [F146DC76] (AR v2)
Copy OK
Track 7
Filename C:\EAC rips\07 - The Turk from Downtown.wav
Pre-gap length 0:00:01.00
Peak level 98.7 %
Extraction speed 4.2 X
Track quality 100.0 %
Test CRC A2C50CEE
Copy CRC A2C50CEE
Accurately ripped (confidence 2) [DEBA127C] (AR v2)
Copy OK
Track 8
Filename C:\EAC rips\08 - October Gaida.wav
Pre-gap length 0:00:01.00
Peak level 98.7 %
Extraction speed 3.0 X
Track quality 99.9 %
Test CRC 7B142C17
Copy CRC 7B142C17
Accurately ripped (confidence 2) [3A34B847] (AR v2)
Copy OK
All tracks accurately ripped
No errors occurred
End of status report
---- CUETools DB Plugin V2.1.4
[CTDB TOCID: NuCsYgXvcCO4W6Vp4briajuyguU-] disk not present in database
Submit result: NuCsYgXvcCO4W6Vp4briajuyguU- has been uploaded
==== Log checksum 9303269E7D5C30E5C513AF38AC54E88CA23E6A8E134EA6A83158DA350B519ECC ====
 
Содержание индексной карты (.CUE)
REM GENRE "Balkan Jazz"
REM DATE 2010
REM DISCID 5E0BB308
REM COMMENT "ExactAudioCopy v1.0b3"
PERFORMER "Matt Darriau Paradox Trio with Bojan Z."
TITLE "Matt Darriau Paradox Trio with Bojan Z."
FILE "01 - Zdravo.wav" WAVE
TRACK 01 AUDIO
TITLE "Zdravo"
PERFORMER "Matt Darriau Paradox Trio with Bojan Z."
INDEX 01 00:00:00
TRACK 02 AUDIO
TITLE "Faux Clarinet with Glass"
PERFORMER "Matt Darriau Paradox Trio with Bojan Z."
INDEX 00 04:20:55
FILE "02 - Faux Clarinet with Glass.wav" WAVE
INDEX 01 00:00:00
TRACK 03 AUDIO
TITLE "Taipan"
PERFORMER "Matt Darriau Paradox Trio with Bojan Z."
INDEX 00 06:49:43
FILE "03 - Taipan.wav" WAVE
INDEX 01 00:00:00
TRACK 04 AUDIO
TITLE "La Petite Gitane (Cigancica)"
PERFORMER "Matt Darriau Paradox Trio with Bojan Z."
INDEX 00 09:01:19
FILE "04 - La Petite Gitane (Cigancica).wav" WAVE
INDEX 01 00:00:00
FILE "05 - Oj ti momce Ohridance.wav" WAVE
TRACK 05 AUDIO
TITLE "Oj ti momce Ohridance"
PERFORMER "Matt Darriau Paradox Trio with Bojan Z."
INDEX 01 00:00:00
FILE "06 - Pomegranate.wav" WAVE
TRACK 06 AUDIO
TITLE "Pomegranate"
PERFORMER "Matt Darriau Paradox Trio with Bojan Z."
INDEX 01 00:00:00
TRACK 07 AUDIO
TITLE "The Turk from Downtown"
PERFORMER "Matt Darriau Paradox Trio with Bojan Z."
INDEX 00 04:57:26
FILE "07 - The Turk from Downtown.wav" WAVE
INDEX 01 00:00:00
TRACK 08 AUDIO
TITLE "October Gaida"
PERFORMER "Matt Darriau Paradox Trio with Bojan Z."
INDEX 00 08:06:39
FILE "08 - October Gaida.wav" WAVE
INDEX 01 00:00:00
14:21
306
Нет комментариев. Ваш будет первым!