Поиск

(Cuban Jazz, Hard Bop) [CD] Nachito Herrera - Live at the Dakota 2 - 2006, FLAC (image+.cue), lossless

(Cuban Jazz, Hard Bop) [CD] Nachito Herrera - Live at the Dakota 2 - 2006, FLAC (image+.cue), lossless
Треклист:
Nachito Herrera - Live at the Dakota 2
Жанр: Cuban Jazz, Hard Bop
Носитель: CD
Страна-производитель диска: США
Год издания: 2006
Издатель (лейбл): Dakota Live!
Номер по каталогу: 00003
Аудиокодек: FLAC (*.flac)
Тип рипа: image+.cue
Битрейт аудио: lossless
Продолжительность: 59:19
Источник (релизер): dreadbull
Наличие сканов в содержимом раздачи: да
Треклист:
01. Introduction
02. Spain in the Twins /N. Herrera/ 6:28
03. Speak No Evil /Wayne Shorter, arr. by N. Herrera/ 7:24
04. Yes or No /Wayne Shorter, arr. by N. Herrera/ 5:54
05. Afro 6/8 /N. Herrera/ 9:44
06. Tulipán /N. Herrera, Jorge Bringas/ 7:51
07. Danzón para Aurora /N. Herrera/ 7:10
08. Babá Fururú /Merceditas Valdés, N. Herrera/ 7:05
09. West Side Latin Jazz /N. Herrera/ 6:55.
Состав:
Ignacio "Nachito" Herrera - piano
Terry Burns - bass
Shai Hayo - percussion
Gordy Knudtson - drums
Mirdalys Herrera - vocals (#8)
Rec. live at The Dakota Jazz Club & Restaurant, Minneapolis, MN.
 
Лог создания рипа
Exact Audio Copy V1.0 beta 3 from 29. August 2011
EAC extraction logfile from 28. December 2013, 14:41
Nachito Herrera / Live at the Dakota 2
Used drive : ASUS DRW-22B2L Adapter: 0 ID: 0
Read mode : Secure
Utilize accurate stream : Yes
Defeat audio cache : Yes
Make use of C2 pointers : No
Read offset correction : 6
Overread into Lead-In and Lead-Out : No
Fill up missing offset samples with silence : Yes
Delete leading and trailing silent blocks : No
Null samples used in CRC calculations : Yes
Used interface : Native Win32 interface for Win NT & 2000
Used output format : User Defined Encoder
Selected bitrate : 128 kBit/s
Quality : High
Add ID3 tag : Yes
Command line compressor : C:\Program Files (x86)\FLAC\flac.exe
Additional command line options : -8 -V -T "ARTIST=%artist%" -T "TITLE=%title%" -T "ALBUM=%albumtitle%" -T "DATE=%year%" -T "TRACKNUMBER=%tracknr%" -T "GENRE=%genre%" -T "PERFORMER=%albuminterpret%" -T "COMPOSER=%composer%" %haslyrics%--tag-from-file=LYRICS="%lyricsfile%"%haslyrics% -T "ALBUMARTIST=%albumartist%" -T "DISCNUMBER=%cdnumber%" -T "TOTALDISCS=%totalcds%" -T "TOTALTRACKS=%numtracks%" -T "COMMENT=%comment%" %source% -o %dest%
TOC of the extracted CD
Track | Start | Length | Start sector | End sector
---------------------------------------------------------
1 | 0:00.00 | 0:42.23 | 0 | 3172
2 | 0:42.23 | 6:23.51 | 3173 | 31948
3 | 7:05.74 | 7:23.07 | 31949 | 65180
4 | 14:29.06 | 5:53.15 | 65181 | 91670
5 | 20:22.21 | 9:43.70 | 91671 | 135465
6 | 30:06.16 | 7:51.48 | 135466 | 170838
7 | 37:57.64 | 7:20.18 | 170839 | 203856
8 | 45:18.07 | 7:05.15 | 203857 | 235746
9 | 52:23.22 | 6:55.71 | 235747 | 266942
Range status and errors
Selected range
Filename G:\Donkey Files\Nachito Herrera - Live at the Dakota 2 (2006, Dakota Live) [eac-flac-scans] byDrBull\Nachito Herrera - Live at the Dakota 2.wav
Peak level 98.9 %
Extraction speed 3.2 X
Range quality 100.0 %
Test CRC 2A3CEE3D
Copy CRC 2A3CEE3D
Copy OK
No errors occurred
AccurateRip summary
Track 1 accurately ripped (confidence 1) [17C0D5DF] (AR v2)
Track 2 accurately ripped (confidence 1) [C0140AFF] (AR v2)
Track 3 accurately ripped (confidence 1) [7AC562D8] (AR v2)
Track 4 accurately ripped (confidence 1) [11C9FC42] (AR v2)
Track 5 accurately ripped (confidence 1) [F145BBA5] (AR v2)
Track 6 accurately ripped (confidence 1) [CB3B3504] (AR v2)
Track 7 accurately ripped (confidence 1) [3A35E9BF] (AR v2)
Track 8 accurately ripped (confidence 1) [D130B012] (AR v2)
Track 9 cannot be verified as accurate (confidence 1) [E3E9CCBF], AccurateRip returned [D43DAD58] (AR v2)
8 track(s) accurately ripped
1 track(s) could not be verified as accurate
Some tracks could not be verified as accurate
End of status report
---- CUETools DB Plugin V2.1.3
[CTDB TOCID: YiTiMUJDk3YkMVdLjcFXn4fOd.U-] disk not present in database, Submit result: YiTiMUJDk3YkMVdLjcFXn4fOd.U- has been uploaded
 
Содержание индексной карты (.CUE)
REM GENRE Latin
REM DATE 2006
REM DISCID 6D0DE709
REM COMMENT "ExactAudioCopy v1.0b3"
PERFORMER "Nachito Herrera"
TITLE "Live at the Dakota 2"
FILE "Nachito Herrera - Live at the Dakota 2.wav" WAVE
TRACK 01 AUDIO
TITLE "Introduction"
PERFORMER "Nachito Herrera"
INDEX 01 00:00:00
TRACK 02 AUDIO
TITLE "Spain in the Twins"
PERFORMER "Nachito Herrera"
INDEX 01 00:42:23
TRACK 03 AUDIO
TITLE "Speak No Evil"
PERFORMER "Nachito Herrera"
INDEX 01 07:05:74
TRACK 04 AUDIO
TITLE "Yes or No"
PERFORMER "Nachito Herrera"
INDEX 01 14:29:06
TRACK 05 AUDIO
TITLE "Afro 6/8"
PERFORMER "Nachito Herrera"
INDEX 01 20:22:21
TRACK 06 AUDIO
TITLE "Tulipan"
PERFORMER "Nachito Herrera"
INDEX 01 30:06:16
TRACK 07 AUDIO
TITLE "Danzon para Aurora"
PERFORMER "Nachito Herrera"
INDEX 01 37:57:64
TRACK 08 AUDIO
TITLE "Baba Fururu"
PERFORMER "Nachito Herrera"
INDEX 01 45:18:07
TRACK 09 AUDIO
TITLE "West Side Latin Jazz"
PERFORMER "Nachito Herrera"
INDEX 01 52:23:22
 
Отчет CUETools
[CUETools log; Date: 11.01.2014 0:09:38; Version: 2.1.4]
[CTDB TOCID: YiTiMUJDk3YkMVdLjcFXn4fOd.U-] found.
Track | CTDB Status
1 | (1/1) Accurately ripped
2 | (1/1) Accurately ripped
3 | (1/1) Accurately ripped
4 | (1/1) Accurately ripped
5 | (1/1) Accurately ripped
6 | (1/1) Accurately ripped
7 | (1/1) Accurately ripped
8 | (1/1) Accurately ripped
9 | (1/1) Accurately ripped
[AccurateRip ID: 0012625a-008d2c6f-6d0de709] found.
Track [ CRC | V2 ] Status
01 [14e72018|17c0d5df] (0+2/2) Accurately ripped
02 [4f634f53|c0140aff] (0+2/2) Accurately ripped
03 [ea1e39ba|7ac562d8] (0+2/2) Accurately ripped
04 [a37be6a7|11c9fc42] (0+2/2) Accurately ripped
05 [5e4758b1|f145bba5] (0+2/2) Accurately ripped
06 [cf886a2e|cb3b3504] (0+2/2) Accurately ripped
07 [87a7fb9b|3a35e9bf] (0+2/2) Accurately ripped
08 [ebdbe21c|d130b012] (0+2/2) Accurately ripped
09 [187e16c0|e3e9ccbf] (0+1/2) Accurately ripped
Track Peak [ CRC32 ] [W/O NULL] [ LOG ]
-- 98,9 [2A3CEE3D] [6ACA79D0] CRC32
01 65,9 [A610C1AB] [3DE80925]
02 98,9 [01C1F890] [4622F9FC]
03 98,9 [A38502AA] [63E15DCD]
04 98,9 [76630319] [B0BE0565]
05 98,9 [17CE8FA1] [4F19FB88]
06 98,9 [26D6473E] [0D8AA317]
07 98,9 [B2B0B41D] [FFFA87FD]
08 98,8 [DF1AA1F7] [B64DCE3C]
09 98,9 [0FF15C21] [1128533E]
 
Review by Jeff Dayton-Johnson
This 2003 date by pianist Nachito Herrera, a veteran of both the Cubanismo group and an idiosyncratic migration from Havana to Minneapolis, is his second live record from the Dakota, located in his adopted hometown. This time around, the large-group format of the first live disc gives way to a smaller ensemble.
Herrera's group masters the dynamic contrasts at the heart of Latin jazz. One motif is turning up the volume for the climatic resolution of repetitive themes; the opening and closing tracks are especially good examples. Another is the easy back and forth between Afro-Cuban and post bop rhythmic signatures, in the vein of Ignacio Berroa's recent Codes (Blue Note, 2006). "Afro 6/8," following a Baroque piano intro, applies this latter effect to a barely disguised variation on "Afro-Blue."
The aural quality of the recording is just fine, but the quality of the relationship between Herrera and the appreciative Minneapolis club audience is really crackling. Herrera rises (repeatedly) to crowd-pleasing crescendos in the manner of, say, Gene Harris, even if his virtuosity is considerably more refined.
The highlights of the set list include a pair of Wayne Shorter tunes; the slightly wistful treatment of "Yes or No" is even nicer than the straight-ahead Latinization of "Speak No Evil." (It's a good season for Shorter covers: see also the witty reading of "E.S.P." by Florian Weber's trio on Minsarah, Enja/Justin Time 2006.) The group manages to successfully adapt the intensity of the faster numbers to "Danzon para Aurora," a virtual catalogue of Latin jazz effects taken at less than breakneck speed.
Shai Hayo (whose own idiosyncratic migration led from Israel to Puerto Rico, before reaching Minneapolis) sounds not so much like a percussionist as a percussion army. Seconded by the powerful and sympathetic work of the delightfully named (for a Latin jazz drummer) Gordie Knudsen, Hayo makes it hard to believe this orchestral sound is essentially that of a piano trio augmented by an extra pair of hands.
Herrera's daughter Mirdalys provides an entirely credible vocal for her father's adaptation of the Yoruba-inspired "Babá Fururú."
14:22
331
Нет комментариев. Ваш будет первым!