Поиск

(World Fusion, Vocal) [CD] Daniele Sepe - Una banda di pezzenti - 2005, WavPack (image+.cue), lossless

(World Fusion, Vocal) [CD] Daniele Sepe - Una banda di pezzenti - 2005, WavPack (image+.cue), lossless
Треклист:
Daniele Sepe - Una banda di pezzenti
Жанр: World Fusion, Vocal
Носитель: CD
Страна-производитель диска: Италия
Год издания: 2005
Издатель (лейбл): Rai Trade
Номер по каталогу: RTPE002
Аудиокодек: WavPack (*.wv)
Тип рипа: image+.cue
Битрейт аудио: lossless
Продолжительность: 65:39
Источник (релизер): germe (hqshare)
Наличие сканов в содержимом раздачи: нет
Треклист:
01. Maweel (10:49)
02. Ial ghali (7:46)
03. Alif je sultani (9:01)
04. Passa l'aucieddi e pizzica la rosa (5:03)
05. Bush e bugiardo (7:13)
06. Canto di zolfara (7:48)
07. Canto alla montanara (17:59)
 
Лог создания рипа
EAC extraction logfile from 24. November 2005, 23:43 for CD
Daniele Sepe / Una banda di pezzenti
Used drive : LITE-ON DVDRW SOHW-832S Adapter: 1 ID: 0
Read mode : Secure with NO C2, accurate stream, disable cache
Read offset correction : 0
Overread into Lead-In and Lead-Out : No
Used output format : H:\Programmi\EAC\REACT.exe (User Defined Encoder)
128 kBit/s
Additional command line options : REACT %o %s %d "%a" "%g" "%t" "%n" "%x" "%y" "%m" "%e" "%f" "%b" %r
Other options :
Fill up missing offset samples with silence : Yes
Delete leading and trailing silent blocks : No
Installed external ASPI interface
Range status and errors
Selected range
Filename E:\condivisi2\Daniele Sepe - Una banda di pezzenti.wav
Peak level 99.5 %
Range quality 99.9 %
CRC 468561AE
Copy OK
No errors occured
End of status report
 
Содержание индексной карты (.CUE)
REM GENRE Jazz
REM DATE 2005
REM DISCID 5B0F6307
REM COMMENT "ExactAudioCopy v0.95b3"
PERFORMER "Daniele Sepe"
TITLE "Una banda di pezzenti"
FILE "Daniele Sepe - Una banda di pezzenti.wav" WAVE
TRACK 01 AUDIO
TITLE "Maweel"
PERFORMER "Daniele Sepe"
INDEX 01 00:00:00
TRACK 02 AUDIO
TITLE "Ial ghali"
PERFORMER "Daniele Sepe"
INDEX 00 10:48:55
INDEX 01 10:48:72
TRACK 03 AUDIO
TITLE "Alif je sultani"
PERFORMER "Daniele Sepe"
INDEX 01 18:34:58
TRACK 04 AUDIO
TITLE "Passa l'aucieddi e pizzica la rosa"
PERFORMER "Daniele Sepe"
INDEX 01 27:35:73
TRACK 05 AUDIO
TITLE "Bush e bugiardo"
PERFORMER "Daniele Sepe"
INDEX 01 32:38:46
TRACK 06 AUDIO
TITLE "Canto di zolfara"
PERFORMER "Daniele Sepe"
INDEX 01 39:51:30
TRACK 07 AUDIO
TITLE "Canto alla montanara"
PERFORMER "Daniele Sepe"
INDEX 00 47:39:48
INDEX 01 47:39:66
 
Лог проверки качества
-----------------------
DON'T MODIFY THIS FILE
-----------------------
PERFORMER: auCDtect Task Manager, ver. 1.6.0 RC1 build 1.6.0.1
Copyright (c) 2008-2010 y-soft. All rights reserved
http://y-soft.org
ANALYZER: auCDtect: CD records authenticity detector, version 0.8.2
Copyright (c) 2004 Oleg Berngardt. All rights reserved.
Copyright (c) 2004 Alexander Djourik. All rights reserved.
FILE: Daniele Sepe - Una banda di pezzenti.wv
Size: 433812933 Hash: 9DA1B3A047196C4EFA441DCECFDA4BF4 Accuracy: -m0
Conclusion: CDDA 99%
Signature: E1109C2F5CF92953A7B91C0086E4A33A1157C408
 
Отчет CUETools
[CUETools log; Date: 31.12.2013 2:50:31; Version: 2.1.4]
[CTDB TOCID: aBou_e33.3JD7UplkxY6cX2gJSU-] found.
Track | CTDB Status
1 | (2/2) Accurately ripped
2 | (2/2) Accurately ripped
3 | (2/2) Accurately ripped
4 | (2/2) Accurately ripped
5 | (2/2) Accurately ripped
6 | (2/2) Accurately ripped
7 | (2/2) Accurately ripped
[AccurateRip ID: 0010ac2a-00637e80-5b0f6307] found.
Track [ CRC | V2 ] Status
01 [358b8b75|6c63fa12] (0+0/1) No match
02 [f774905e|dfe81ba2] (0+0/1) No match
03 [e351a4ec|1a044649] (0+0/1) No match
04 [37371d45|71da7632] (0+0/1) No match
05 [33b5517d|e193399d] (0+0/1) No match
06 [ff3c7f93|ce9f7124] (0+0/1) No match
07 [b2796abd|f5c5c130] (0+0/1) No match
Offsetted by 12:
01 [ad5950a4] (0/1) No match (V2 was not tested)
02 [41813176] (0/1) No match (V2 was not tested)
03 [cc04737a] (0/1) No match (V2 was not tested)
04 [8482aa3c] (0/1) No match (V2 was not tested)
05 [2f803bff] (0/1) No match (V2 was not tested)
06 [a3302d2f] (0/1) No match (V2 was not tested)
07 [a8c77e36] (0/1) No match (V2 was not tested)
Track Peak [ CRC32 ] [W/O NULL]
-- 99,5 [468561AE] [7AD0D0FA]
01 98,8 [D94AB25A] [8B23F8FF]
02 99,5 [A35A9876] [9B0FC7AC]
03 98,8 [25495F1D] [E12B05B6]
04 98,8 [7D3E3048] [2AD1CAEE]
05 98,8 [F0F9EBBC] [22338B4D]
06 98,9 [5C9741DD] [7DE452C5]
07 98,8 [D8F10FC7] [F59028EB]
 
Об альбоме (сборнике)
E’ il Sepe di sempre. E’ indefinibile. E’ tutto e non può essere ricondotto ad una sola parola, ma neanche una sola espressione. Ma visto che bisogna dare una bussola a chi legge e il cd non l’ha ascoltato, è necessario tentare un abbozzo di definizione, incanalamento, catalogazione citando il nome di qualche genere musicale (so che Daniele Sepe mi strozzerebbe).
Introduciamo prima: bisogna avere il coraggio delle proprie opinioni, del proprio passato e della propria storia per fare un disco così indifferente alle impietose leggi del mercato. Bisogna averlo anche per impegnarsi sul fronte del prezzo: come quasi tutti i suoi cd questo costa 8 euro, anche se questa volta non è pubblicato con Il Manifesto ma con Rai Trade ed Helikonia, e si trova nelle edicole con il mensile “Indie - La musica indipendente”. Daniele Sepe di questo coraggio ne ha a non finire, e continua ad uscire imbattuto dalle partite che tutti noi, quotidianamente, giochiamo con la coerenza. Prova ne sia che in questo disco si dà voce agli immigrati - con la musica e le bellissime immagini del booklet - “non in quanto oggetti di una ricerca, quanto come soggetti di una realtà nuova con la quale abbiamo da confrontarci”, come scrive Aniello Barone (l’autore delle foto interne) nella sua introduzione contenuta nel libretto...
 
Состав
Auli Kokko, Marzuk Mejiri - vocals, percussion
Enrico Noviello - vocals, chitarra battente
Daniele Sepe - soprano saxophone, tenor saxophone
Pino Minafra - trumpet
Luciano Nini - bass clarinet
Franco Giacoia - electric guitar, fretless guitar
Giancarlo Perna - electric guitar
Massimo Moccia - slide guitar
Piero De Asmundis, Livio Minafra - Rhodes, keyboards
Lello Petrarca - Rhodes, keyboards, electric bass
Aldo Vigorito - bass
Dario Franco - electric bass
Lello Di Fenza, Salvatore Tranchini, Enrico Del Gaudio - drums
Peppe Sannino, Jens Hansen - congas
14:20
329
Нет комментариев. Ваш будет первым!