Поиск

(World Fusion, Latin Jazz, Saxophone Jazz) Victor Assis Brasil Quarteto - Pedrinho - 1979, FLAC (image+.cue), lossless

(World Fusion, Latin Jazz, Saxophone Jazz) Victor Assis Brasil Quarteto - Pedrinho - 1979, FLAC (image+.cue), lossless
Треклист:
Victor Assis Brasil Quarteto - Pedrinho
Жанр: World Fusion, Latin Jazz, Saxophone Jazz
Год издания диска: 1979
Издатель (лейбл): EMI-Odeon
Номер по каталогу: 064 422856
Страна: Rio de Janeiro, Brazil
Аудиокодек: FLAC (*.flac)
Тип рипа: image+.cue
Битрейт аудио: lossless
Продолжительность: 00:37:08
Источник (релизер): seogcg
Наличие сканов в содержимом раздачи: да

Victor Assis Brasil - Sax
Jotinha Moraes - Piano e Vibrafone (Vibes)
Paulo Russo - Contrabixo (Bass)
Ted Moore - Bateria (Drums)

01. It's all right with me
(Cole Porter)
BREMI7900508
02. Nada será como antes
(Milton Nascimento/Ronaldo Bastos)
BREMI7900509
03. Pedrinho
(Victor Assis Brasil)
BREMI790D510
04. 'S wonderful
(George Gershwin/Ira Gershwin)
BREMI7900511
05. Penedo
(Victor Assis Brasil)
BREMI7900512
06. O cantador
(Dory Caymmi/Nelson Motta)
BREMI7900513

07. Night and day
(Cole Porter)

BREMI7900514

Victor Assis Brasil was born in Rio de Janeiro, Brazil on 28 August of 1945.... died in Rio De Janeiro on 14 April 1981.

 
Лог создания рипа
EAC extraction logfile from 26. November 2007, 23:01 for CD
Vitor Assis Brasil Quarteto / Quarteto
Used drive : HL-DT-STRW/DVD GCC-4520B Adapter: 0 ID: 1
Read mode : Secure with NO C2, accurate stream, disable cache
Read offset correction : 6
Overread into Lead-In and Lead-Out : No
Used output format : Internal WAV Routines
44.100 Hz; 16 Bit; Stereo
Other options :
Fill up missing offset samples with silence : Yes
Delete leading and trailing silent blocks : No
Installed external ASPI interface
Range status and errors
Selected range
Filename D:\INCOMING\_RELEASES\Vitor Assis Brasil Quarteto - Quarteto.wav
Peak level 100.0 %
Range quality 100.0 %
CRC 84AEFC3C
Copy OK
No errors occured
End of status report
--------------------------------------------------
flac 1.2.1, Copyright (C) 2000,2001,2002,2003,2004,2005,2006,2007 Josh Coalson
flac comes with ABSOLUTELY NO WARRANTY. This is free software, and you are
welcome to redistribute it under certain conditions. Type `flac' for details.
Vitor Assis Brasil Quarteto - Quarteto.wav: Verify OK, wrote 237906361 bytes, ratio=0,605
Tag - Automatic Tag from filename
Copyright (c) 2002-2003 Case. Minor additions by Neil Popham, 2004-2007
Version 2.0.52, Compiled 2007-05-04
D:\INCOMING\_RELEASES\Vitor Assis Brasil Quarteto - Quarteto.flac
Format: FLAC
Details: 44100 Hz Stereo, 854 kbps, playtime 37:07
Tags: FLAC, Generated from name
Title: Quarteto
Artist: Vitor Assis Brasil Quarteto
Album: Pedrinho [1979][ODEON][JAZZ][EAC FLAC SCAN]by seogcg
Year:
Track:
Genre:
Comment: Encoded by FLAC v1.1.4a with FLAC Frontend v1.7.1
REPLAYGAIN_REFERENCE_LOUDNESS=89.0 dB
REPLAYGAIN_TRACK_GAIN=-6.04 dB
REPLAYGAIN_TRACK_PEAK=0.99996948
REPLAYGAIN_ALBUM_GAIN=-6.04 dB
REPLAYGAIN_ALBUM_PEAK=0.99996948
FLAC tag written.
 
Содержание индексной карты (.CUE)
REM GENRE Jazz
REM DATE 1979
REM DISCID 70115608
REM COMMENT "ExactAudioCopy v0.95b4"
CATALOG 0101000066000
PERFORMER "Vitor Assis Brasil Quarteto"
TITLE "Quarteto"
FILE "Vitor Assis Brasil Quarteto - Quarteto.wav" WAVE
TRACK 01 AUDIO
TITLE "ItґS All Right With Me"
PERFORMER "Vitor Assis Brasil Quarteto"
ISRC 0@4001100000
INDEX 01 00:00:00
TRACK 02 AUDIO
TITLE "Nada Serб Como Antes"
PERFORMER "Vitor Assis Brasil Quarteto"
ISRC 0P4001400045
INDEX 00 04:53:65
INDEX 01 04:55:32
TRACK 03 AUDIO
TITLE "Pedrinho"
PERFORMER "Vitor Assis Brasil Quarteto"
ISRC 0`4000000105
INDEX 00 10:46:00
INDEX 01 10:47:42
TRACK 04 AUDIO
TITLE "ґS Wonderful"
PERFORMER "Vitor Assis Brasil Quarteto"
ISRC 104005000144
INDEX 00 14:38:65
INDEX 01 14:40:32
TRACK 05 AUDIO
TITLE "Penedo"
PERFORMER "Vitor Assis Brasil Quarteto"
ISRC 1@4000000182
INDEX 00 18:23:40
INDEX 01 18:25:07
TRACK 06 AUDIO
TITLE "O Cantador"
PERFORMER "Vitor Assis Brasil Quarteto"
ISRC 1P4005500270
INDEX 00 27:01:10
INDEX 01 27:02:52
TRACK 07 AUDIO
TITLE "Night And Day"
PERFORMER "Vitor Assis Brasil Quarteto"
ISRC 1`4005800321
INDEX 00 32:13:20
INDEX 01 32:14:62
22:37
257
Нет комментариев. Ваш будет первым!