Поиск

(Jazz/Latin Jazz, Latin Music) Ultra High Flamenco - Bipolar - 2011, FLAC (tracks+.cue), lossless

Треклист:
Ultra High Flamenco / Bipolar
Жанр: Jazz/Latin Jazz, Latin Music
Год издания диска: 2011
Издатель (лейбл): Karonte
Аудиокодек: FLAC (*.flac)
Тип рипа: tracks+.cue
Битрейт аудио: lossless
Продолжительность: 44:56
Источник (релизер): whatCD
Наличие сканов в содержимом раздачи: нет
Треклист:
1. Nuestra Sfera
2. Positango
3. O.F.N.I.
4. A Manuel Torre
5. El Republicanon
6. Bolando
7. La Tanguirera
8. La Baratita
 
Лог создания рипа
X Lossless Decoder version 20110611 (135.0)
XLD extraction logfile from 2011-06-25 15:23:47 +0200
Ultra High Flamenco / Bipolar
Used drive : HL-DT-ST DVDRW GS23N (revision SB00)
Ripper mode : XLD Secure Ripper
Disable audio cache : OK for the drive with a cache less than 1375KiB
Make use of C2 pointers : NO
Read offset correction : 667
Max retry count : 20
Gap status : Analyzed, Appended
TOC of the extracted CD
Track | Start | Length | Start sector | End sector
---------------------------------------------------------
1 | 00:00:00 | 04:42:25 | 0 | 21174
2 | 04:42:25 | 05:17:57 | 21175 | 45006
3 | 10:00:07 | 05:06:03 | 45007 | 67959
4 | 15:06:10 | 06:38:62 | 67960 | 97871
5 | 21:44:72 | 06:47:19 | 97872 | 128415
6 | 28:32:16 | 04:51:29 | 128416 | 150269
7 | 33:23:45 | 06:58:22 | 150270 | 181641
8 | 40:21:67 | 04:37:32 | 181642 | 202448
AccurateRip Summary
Disc not found in AccurateRip DB.
All Tracks
Album gain : -3.60 dB
Peak : 1.000000
Statistics
Read error : 0
Jitter error (maybe fixed) : 0
Retry sector count : 0
Damaged sector count : 0
Track 01
Filename : /Users/andor/Music/RIP/Ultra High Flamenco - Bipolar (2011) [FLAC]/01 Nuestra Sfera.flac
Pre-gap length : 00:02:00
Track gain : -4.06 dB
Peak : 1.000000
CRC32 hash (test run) : 99D0ECA4
CRC32 hash : 99D0ECA4
CRC32 hash (skip zero) : 22EF1DDA
AccurateRip signature : 330D21F4
->Track not present in AccurateRip database.
Statistics
Read error : 0
Jitter error (maybe fixed) : 0
Retry sector count : 0
Damaged sector count : 0
Track 02
Filename : /Users/andor/Music/RIP/Ultra High Flamenco - Bipolar (2011) [FLAC]/02 Positango.flac
Pre-gap length : 00:02:00
Track gain : -3.32 dB
Peak : 1.000000
CRC32 hash (test run) : 8559A61C
CRC32 hash : 8559A61C
CRC32 hash (skip zero) : CCF52AD1
AccurateRip signature : AE105926
->Track not present in AccurateRip database.
Statistics
Read error : 0
Jitter error (maybe fixed) : 0
Retry sector count : 0
Damaged sector count : 0
Track 03
Filename : /Users/andor/Music/RIP/Ultra High Flamenco - Bipolar (2011) [FLAC]/03 O.F.N.I. (Objeto Flamenco No Identificado).flac
Pre-gap length : 00:02:00
Track gain : -2.45 dB
Peak : 0.999969
CRC32 hash (test run) : 717AEB0F
CRC32 hash : 717AEB0F
CRC32 hash (skip zero) : F1575E58
AccurateRip signature : 293C8E01
->Track not present in AccurateRip database.
Statistics
Read error : 0
Jitter error (maybe fixed) : 0
Retry sector count : 0
Damaged sector count : 0
Track 04
Filename : /Users/andor/Music/RIP/Ultra High Flamenco - Bipolar (2011) [FLAC]/04 A Manuel Torre.flac
Pre-gap length : 00:02:00
Track gain : -2.69 dB
Peak : 1.000000
CRC32 hash (test run) : 10E76CB0
CRC32 hash : 10E76CB0
CRC32 hash (skip zero) : 804BE0C2
AccurateRip signature : 8AEAA4E6
->Track not present in AccurateRip database.
Statistics
Read error : 0
Jitter error (maybe fixed) : 0
Retry sector count : 0
Damaged sector count : 0
Track 05
Filename : /Users/andor/Music/RIP/Ultra High Flamenco - Bipolar (2011) [FLAC]/05 El Republicanon.flac
Pre-gap length : 00:01:00
Track gain : -3.52 dB
Peak : 1.000000
CRC32 hash (test run) : 65EC2D17
CRC32 hash : 65EC2D17
CRC32 hash (skip zero) : 3306FDF7
AccurateRip signature : B439B952
->Track not present in AccurateRip database.
Statistics
Read error : 0
Jitter error (maybe fixed) : 0
Retry sector count : 0
Damaged sector count : 0
Track 06
Filename : /Users/andor/Music/RIP/Ultra High Flamenco - Bipolar (2011) [FLAC]/06 Bolando.flac
Pre-gap length : 00:02:00
Track gain : -2.41 dB
Peak : 0.986603
CRC32 hash (test run) : 07BA7815
CRC32 hash : 07BA7815
CRC32 hash (skip zero) : 16B2463D
AccurateRip signature : C2312183
->Track not present in AccurateRip database.
Statistics
Read error : 0
Jitter error (maybe fixed) : 0
Retry sector count : 0
Damaged sector count : 0
Track 07
Filename : /Users/andor/Music/RIP/Ultra High Flamenco - Bipolar (2011) [FLAC]/07 La Tanguirera.flac
Pre-gap length : 00:01:00
Track gain : -5.07 dB
Peak : 1.000000
CRC32 hash (test run) : 7930A187
CRC32 hash : 7930A187
CRC32 hash (skip zero) : DFCC1A08
AccurateRip signature : 041A9CBF
->Track not present in AccurateRip database.
Statistics
Read error : 0
Jitter error (maybe fixed) : 0
Retry sector count : 0
Damaged sector count : 0
Track 08
Filename : /Users/andor/Music/RIP/Ultra High Flamenco - Bipolar (2011) [FLAC]/08 La Baratita.flac
Pre-gap length : 00:02:00
Track gain : -2.36 dB
Peak : 1.000000
CRC32 hash (test run) : 6DE94DE8
CRC32 hash : 6DE94DE8
CRC32 hash (skip zero) : E5B2782A
AccurateRip signature : 84486DA7
->Track not present in AccurateRip database.
Statistics
Read error : 0
Jitter error (maybe fixed) : 0
Retry sector count : 0
Damaged sector count : 0
No errors occurred
End of status report
 
Содержание индексной карты (.CUE)
TITLE "Bipolar"
PERFORMER "Ultra High Flamenco"
REM GENRE "Fusion"
REM DATE "2011"
REM DISCNUMBER 1
REM TOTALDISCS 1
REM DISCID 520A8B08
FILE "01 Nuestra Sfera.wav" WAVE
TRACK 01 AUDIO
TITLE "Nuestra Sfera"
ISRC ES7731102036
INDEX 01 00:00:00
TRACK 02 AUDIO
TITLE "Positango"
ISRC ES7731102037
INDEX 00 04:40:25
FILE "02 Positango.wav" WAVE
INDEX 01 00:00:00
TRACK 03 AUDIO
TITLE "O.F.N.I. (Objeto Flamenco No Identificado)"
ISRC ES7731102038
INDEX 00 05:15:57
FILE "03 O.F.N.I. (Objeto Flamenco No Identificado).wav" WAVE
INDEX 01 00:00:00
TRACK 04 AUDIO
TITLE "A Manuel Torre"
ISRC ES7731102039
INDEX 00 05:04:03
FILE "04 A Manuel Torre.wav" WAVE
INDEX 01 00:00:00
TRACK 05 AUDIO
TITLE "El Republicanon"
ISRC ES7731102040
INDEX 00 06:37:62
FILE "05 El Republicanon.wav" WAVE
INDEX 01 00:00:00
TRACK 06 AUDIO
TITLE "Bolando"
ISRC ES7731102041
INDEX 00 06:45:19
FILE "06 Bolando.wav" WAVE
INDEX 01 00:00:00
TRACK 07 AUDIO
TITLE "La Tanguirera"
ISRC ES7731102042
INDEX 00 04:50:29
FILE "07 La Tanguirera.wav" WAVE
INDEX 01 00:00:00
TRACK 08 AUDIO
TITLE "La Baratita"
ISRC ES7731102043
INDEX 00 06:56:22
FILE "08 La Baratita.wav" WAVE
INDEX 01 00:00:00
 
Об альбоме (сборнике)
The group Ultra High Flamenco puts the finishing touches on their second album, ‘Bipolar’. Since early February at CATA Studios in Madrid, guitarist José Quevedo ‘Bolita’, contrabassist Pablo Martín, violinist Alexis Lefèvre and percussionist Paquito González have been recording a new repertoire consisting of eight songs, with Óscar Herrador as sound engineer. According to the quartet, the disc “maintains the flamenco essence in the playing, but incorporates new textures and rhythms which make this album something unique, with an identity and personality all its own”. The official live presentation will take place on March 11th at Festival de Jerez 2011, coinciding with the album’s release.
 
Состав
UHF Ultra High Flamenco is formed by:
ALEXIS LEFEVRE (violin),
JOSÉ QUEVEDO “BOLITA” (guitar and mandola),
PABLO MARTÍN-CAMINERO (double bass)
PAQUITO GONZÁLEZ (percussion)
22:38
272
Нет комментариев. Ваш будет первым!