Поиск

(World Fusion, Latin Jazz) Johnny Blas and his Latin Jazz (feat. Dave Pike) - Skin and Bones - 1997, APE (image+.cue), lossless

Треклист:
Johnny Blas and his Latin Jazz (feat. Dave Pike) - Skin and Bones
Жанр: World Fusion, Latin Jazz
Год издания диска: 1997
Издатель (лейбл): CuBop
Номер по каталогу: CBCD008
Аудиокодек: APE (*.ape)
Тип рипа: image+.cue
Битрейт аудио: lossless
Продолжительность: 01:02:07
Источник (релизер): hqshare(dreadbull)
Наличие сканов в содержимом раздачи: да
Треклист:
1. Los Huesos /Weinstein/ 5:18
2. Adelante /Gutierrez/ 4:21
3. Gianna /Blas/ 4:55
4. Something Within Me /Blas/ 5:52
5. I Remember Bennie Green /Weinstein/ 5:55
6. Skin & Bones /Blas, Gutierrez, Weinstein/ 4:16
7. Cool Blas /Blas/ 5:49
8. Mas Azucar /Gutierrez/ 4:33
9. Afro-Rican /Blas/ 6:10
10. Yo No Sé /Gutierrez/ 5:57
11. Black Bean Power /Weinstein/ 4:46
12. Skin & Bones (Reprise) /Blas, Gutierrez, Weinstein/ 4:07
 
Лог создания рипа
EAC extraction logfile from 27. October 2010, 19:34 for CD
Johnny Blas / Skin and Bones
Used drive : PLEXTOR DVDR PX-750A Adapter: 0 ID: 1
Read mode : Secure with NO C2, accurate stream, disable cache
Read offset correction : 102
Overread into Lead-In and Lead-Out : No
Used output format : Internal WAV Routines
44.100 Hz; 16 Bit; Stereo
Other options :
Fill up missing offset samples with silence : Yes
Delete leading and trailing silent blocks : No
Installed external ASPI interface
Range status and errors
Selected range
Filename E:\Donkey Files\Johnny Blas - Skin and Bones (1997, CuBop) [eac-ape-scans] byDrBull\CDImage.wav
Peak level 100.0 %
Range quality 99.9 %
CRC 0C93E037
Copy OK
No errors occured
End of status report
 
Содержание индексной карты (.CUE)
CATALOG 0000000000000
PERFORMER "Johnny Blas"
TITLE "Skin and Bones"
FILE "CDImage.wav" WAVE
TRACK 01 AUDIO
TITLE "Los Huesos"
PERFORMER "Johnny Blas"
FLAGS DCP
INDEX 01 00:00:00
TRACK 02 AUDIO
TITLE "Adelante"
PERFORMER "Johnny Blas"
FLAGS DCP
INDEX 00 05:18:29
INDEX 01 05:19:29
TRACK 03 AUDIO
TITLE "Gianna"
PERFORMER "Johnny Blas"
FLAGS DCP
INDEX 00 09:39:73
INDEX 01 09:40:73
TRACK 04 AUDIO
TITLE "Something Within me"
PERFORMER "Johnny Blas"
FLAGS DCP
INDEX 00 14:35:59
INDEX 01 14:36:59
TRACK 05 AUDIO
TITLE "I Remember Bennie Green"
PERFORMER "Johnny Blas"
FLAGS DCP
INDEX 00 20:29:03
INDEX 01 20:30:48
TRACK 06 AUDIO
TITLE "Skin and Bones"
PERFORMER "Johnny Blas"
FLAGS DCP
INDEX 00 26:25:62
INDEX 01 26:26:61
TRACK 07 AUDIO
TITLE "Cool Blas"
PERFORMER "Johnny Blas"
FLAGS DCP
INDEX 00 30:43:23
INDEX 01 30:44:67
TRACK 08 AUDIO
TITLE "Mas Azucar"
PERFORMER "Johnny Blas"
FLAGS DCP
INDEX 00 36:33:67
INDEX 01 36:34:67
TRACK 09 AUDIO
TITLE "Afro-Rican"
PERFORMER "Johnny Blas"
FLAGS DCP
INDEX 00 41:08:04
INDEX 01 41:09:04
TRACK 10 AUDIO
TITLE "Yo No Se"
PERFORMER "Johnny Blas"
FLAGS DCP
INDEX 00 47:18:65
INDEX 01 47:19:65
TRACK 11 AUDIO
TITLE "Black Bean Power"
PERFORMER "Johnny Blas"
FLAGS DCP
INDEX 00 53:16:57
INDEX 01 53:17:57
TRACK 12 AUDIO
TITLE "Skin & Bones"
PERFORMER "Johnny Blas"
FLAGS DCP
INDEX 00 58:04:07
INDEX 01 58:05:52
 
Об исполнителе (группе)
by Stacia Proefrock
Stylish conguero Johnny Blas has been leading his band since 1992, releasing their first album together, A Night in L.A. on Discos Dos Coronas in 1994. The album (and those that followed) featured Blas' solid playing along with some equally solid songwriting and support from a talented group of musicians, including percussionist Angel Rodriguez, trombonists Humberto Ruiz, Kerry Loeschen, Edwin Blas and Dan Weinstein, guitarist Mark Gutierrez and bassist Paul Perez. The band kept up the hard work, releasing two more albums on the famed CuBop label, Skin and Bones in 1997 and Mambo 2000 in 1998, both of which earned critical praise in the Latin and Jazz music press. In 1999, Blas' continued the tradition with the release of King Conga, also released on the CuBop label. The album makes use of the songwriting talents of band members Guitierrez and Weinstein and features the same kind of jazzy, funky Afro-Caribbean groove that was found on his first three albums.
 
Об альбоме (сборнике)
by Nathan Bush
Best known for their roster of rare groove acts including Greyboy, Bugs, and Slide Five, Ubiquity's Jody and Michael McFadin also operate CuBop, their very own Latin jazz imprint. Following releases from timbale legend Henry "Pucho" Brown and percussionist Bobby Matos, and a reissue of an excellent Latin funk title from Har-You Percussion Group, rhythm master Johnny Blas made his debut on the label with Skin & Bones. It's indicative of the style that percussionists are so often thrust into the leader role. Though the horns may deliver sizzling Latin flavors and the piano (Mark Gutierrez) and vibes (Dave Pike) follow suit, the percussion artillery of Blas (congas), Jose Deleon (timbales), and Roberto Melendez (bongos, bells) gives the music its definition. Whether soloing or propelling the improvisations of others, song after song, they breathe life into this music. Skin & Bones is unique on a number of levels. For one, the four-piece horn section is an all-trombone unit of Dan Weinstein, Steve Baxter, Francisco Torres, and Isaac Smith. While every member of this quartet is an accomplished soloist, they are best heard in unison, delivering parallel threads of melody that reinforce each other through lively improvisations on the tunes -- which brings us to the compositions themselves. Impressive contributions from Blas (four), Weinstein, and Gutierrez (three apiece) make up the all original repertoire with their combined penmanship driving the fiery title track. Rather than being an exercise in nostalgia that much '90s traditional jazz had become, Skin & Bones is a testament to the continued vitality of this music.
 
Состав
Johnny Blas (congas, coro, bata, percussion);
Dan Weinstein (trombone, coro, arranger);
Mark Gutierrez (piano, coro, acoustic & electric guitar, arranger);
Steve Baxter, Francisco Torres, Issac Smith (trombone);
Jonathan Pintoff (baby bass);
Jose DeLeon, Jr. (vocals, bongos, bell, coro, maracas, chekere, timbales);
Robertito Melendez (bongos, bell, coro, guiro, timbales);
Special guest:
Dave Pike (vibraphone)
21:36
242
Нет комментариев. Ваш будет первым!