Поиск

(World Fusion, Latin Jazz, Post-Bop) Albert Sanz Trio - O Que Sera - 2012, FLAC (tracks+.cue), lossless

(World Fusion, Latin Jazz, Post-Bop) Albert Sanz Trio - O Que Sera - 2012, FLAC (tracks+.cue), lossless
Треклист:
•Albert Sanz Trio - O Que Sera•
Жанр: World Fusion, Latin Jazz, Post-Bop
Год издания: 2012
Издатель (лейбл): Nuba Records
Аудиокодек: FLAC (*.flac)
Тип рипа: tracks+.cue
Битрейт аудио: lossless
Продолжительность:00:57:09
Источник (релизер): jlgt
Наличие сканов в содержимом раздачи: да
Треклист:
01. Soberana Rosa [04:50]
02. O Que Sera [06:06]
03. Antes Que Seja Tarde [05:36]
04. Outros Sonhos [05:33]
05. Mil Perdoes [06:09]
06. Mar E Lua [05:14]
07. Daquilo Que Eu Sei [05:11]
08. Desesperar Jamais [06:19]
09. Aula De Matematica [03:19]
10. Sophisticated Lady [08:49]
Personnel:
Albert Sanz - piano
Javier Colina - bass
Al Foster - drums
 
Лог создания рипа
Exact Audio Copy V1.0 beta 2 from 29. April 2011
EAC extraction logfile from 23. June 2012, 11:40
Albert Sanz Trio / O Que Sera
Used drive : PLEXTOR DVDR PX-L890SA Adapter: 2 ID: 1
Read mode : Secure
Utilize accurate stream : Yes
Defeat audio cache : Yes
Make use of C2 pointers : No
Read offset correction : 6
Overread into Lead-In and Lead-Out : No
Fill up missing offset samples with silence : Yes
Delete leading and trailing silent blocks : No
Null samples used in CRC calculations : Yes
Used interface : Native Win32 interface for Win NT & 2000
Gap handling : Appended to previous track
Used output format : User Defined Encoder
Selected bitrate : 256 kBit/s
Quality : High
Add ID3 tag : No
Command line compressor : C:\Program Files (x86)\Exact Audio Copy\FLAC\FLAC.EXE
Additional command line options : -8 -V -T "ARTIST=%artist%" -T "TITLE=%title%" -T "ALBUM=%albumtitle%" -T "DATE=%year%" -T "TRACKNUMBER=%tracknr%" -T "TOTALTRACKS=%numtracks%" -T "GENRE=%genre%" -T "ALBUMARTIST=%albumartist%" -T "ALBUM ARTIST=%albumartist%
TOC of the extracted CD
Track | Start | Length | Start sector | End sector
---------------------------------------------------------
1 | 0:00.00 | 4:50.65 | 0 | 21814
2 | 4:50.65 | 6:06.12 | 21815 | 49276
3 | 10:57.02 | 5:36.53 | 49277 | 74529
4 | 16:33.55 | 5:33.23 | 74530 | 99527
5 | 22:07.03 | 6:09.09 | 99528 | 127211
6 | 28:16.12 | 5:14.30 | 127212 | 150791
7 | 33:30.42 | 5:11.08 | 150792 | 174124
8 | 38:41.50 | 6:19.54 | 174125 | 202603
9 | 45:01.29 | 3:19.03 | 202604 | 217531
10 | 48:20.32 | 8:49.33 | 217532 | 257239
Track 1
Filename F:\Flac Rips\01 - Soberana Rosa.wav
Pre-gap length 0:00:02.00
Peak level 95.7 %
Extraction speed 3.9 X
Track quality 100.0 %
Test CRC CC70F890
Copy CRC CC70F890
Track not present in AccurateRip database
Copy OK
Track 2
Filename F:\Flac Rips\02 - O Que Sera.wav
Peak level 95.5 %
Extraction speed 3.9 X
Track quality 99.9 %
Test CRC 4789BBDF
Copy CRC 4789BBDF
Track not present in AccurateRip database
Copy OK
Track 3
Filename F:\Flac Rips\03 - Antes Que Seja Tarde.wav
Peak level 95.7 %
Extraction speed 5.0 X
Track quality 100.0 %
Test CRC F1031D41
Copy CRC F1031D41
Track not present in AccurateRip database
Copy OK
Track 4
Filename F:\Flac Rips\04 - Outros Sonhos.wav
Peak level 96.1 %
Extraction speed 4.4 X
Track quality 99.9 %
Test CRC 1449CA50
Copy CRC 1449CA50
Track not present in AccurateRip database
Copy OK
Track 5
Filename F:\Flac Rips\05 - Mil Perdoes.wav
Peak level 95.5 %
Extraction speed 5.7 X
Track quality 100.0 %
Test CRC 9E030178
Copy CRC 9E030178
Track not present in AccurateRip database
Copy OK
Track 6
Filename F:\Flac Rips\06 - Mar E Lua.wav
Peak level 76.5 %
Extraction speed 5.0 X
Track quality 99.9 %
Test CRC 6194D289
Copy CRC 6194D289
Track not present in AccurateRip database
Copy OK
Track 7
Filename F:\Flac Rips\07 - Daquilo Que Eu Sei.wav
Peak level 95.7 %
Extraction speed 5.3 X
Track quality 99.9 %
Test CRC 4AE3698D
Copy CRC 4AE3698D
Track not present in AccurateRip database
Copy OK
Track 8
Filename F:\Flac Rips\08 - Desesperar Jamais.wav
Peak level 95.7 %
Extraction speed 6.6 X
Track quality 100.0 %
Test CRC 217DF748
Copy CRC 217DF748
Track not present in AccurateRip database
Copy OK
Track 9
Filename F:\Flac Rips\09 - Aula De Matematica.wav
Peak level 87.4 %
Extraction speed 6.5 X
Track quality 100.0 %
Test CRC 5791C50E
Copy CRC 5791C50E
Track not present in AccurateRip database
Copy OK
Track 10
Filename F:\Flac Rips\10 - Sophisticated Lady.wav
Peak level 95.6 %
Extraction speed 7.6 X
Track quality 100.0 %
Test CRC 8646FCA8
Copy CRC 8646FCA8
Track not present in AccurateRip database
Copy OK
None of the tracks are present in the AccurateRip database
No errors occurred
End of status report
==== Log checksum AB027A73DF9DB0A1ECFC8DC717EBE2D6381B44FDCAF7039EF399DC0B8CC061D0 ====
 
Содержание индексной карты (.CUE)
REM GENRE Jazz
REM DATE 2012
REM DISCID 890D650A
REM COMMENT "ExactAudioCopy v1.0b2"
PERFORMER "Albert Sanz Trio"
TITLE "O Que Sera"
FILE "01 - Soberana Rosa.wav" WAVE
TRACK 01 AUDIO
TITLE "Soberana Rosa"
PERFORMER "Albert Sanz Trio"
INDEX 01 00:00:00
FILE "02 - O Que Sera.wav" WAVE
TRACK 02 AUDIO
TITLE "O Que Sera"
PERFORMER "Albert Sanz Trio"
INDEX 01 00:00:00
FILE "03 - Antes Que Seja Tarde.wav" WAVE
TRACK 03 AUDIO
TITLE "Antes Que Seja Tarde"
PERFORMER "Albert Sanz Trio"
INDEX 01 00:00:00
FILE "04 - Outros Sonhos.wav" WAVE
TRACK 04 AUDIO
TITLE "Outros Sonhos"
PERFORMER "Albert Sanz Trio"
INDEX 01 00:00:00
FILE "05 - Mil Perdoes.wav" WAVE
TRACK 05 AUDIO
TITLE "Mil Perdoes"
PERFORMER "Albert Sanz Trio"
INDEX 01 00:00:00
FILE "06 - Mar E Lua.wav" WAVE
TRACK 06 AUDIO
TITLE "Mar E Lua"
PERFORMER "Albert Sanz Trio"
INDEX 01 00:00:00
FILE "07 - Daquilo Que Eu Sei.wav" WAVE
TRACK 07 AUDIO
TITLE "Daquilo Que Eu Sei"
PERFORMER "Albert Sanz Trio"
INDEX 01 00:00:00
FILE "08 - Desesperar Jamais.wav" WAVE
TRACK 08 AUDIO
TITLE "Desesperar Jamais"
PERFORMER "Albert Sanz Trio"
INDEX 01 00:00:00
FILE "09 - Aula De Matematica.wav" WAVE
TRACK 09 AUDIO
TITLE "Aula De Matematica"
PERFORMER "Albert Sanz Trio"
INDEX 01 00:00:00
FILE "10 - Sophisticated Lady.wav" WAVE
TRACK 10 AUDIO
TITLE "Sophisticated Lady"
PERFORMER "Albert Sanz Trio"
INDEX 01 00:00:00
08:59
249
Нет комментариев. Ваш будет первым!