Поиск

2007 Suphala - Blueprint {Suphala} [CD]

2007 Suphala - Blueprint {Suphala} [CD]
Треклист:

01. Maybe There's A Place Where Someday Just You and I Can Go 04:29
(featuring vocals by Vikter Duplaix, bansuri by Rakesh Chaurasia, violin by Mazz Swift)
02. The Blank Page 04:56
(featuring electric guitar by Harper Simon, additional production by Salim Merchant)
03. Underwater City 06:57
(violin by Mazz Swift, cello by David Gotay)
04. Music Like a Memory 03:35
(featuring words and vocals by Edie Brickell, viper by Mazz Swift)
05. Seventeen Birds Outside My Window 04:38
06. Auramatic 03:49
(featuring electric guitar by Vernon Reid, words and vocals by Furor Thin, production by King Britt)
07. Unwind You 05:49
(violin by Mazz Swift, cello by David Gotay)
08. Maybe There's A Place Where Someday Just You and I Can Go 04:40
(featuring bansuri by Rakesh Chaurasia, violin by Mazz Swift)
09. Music Like a Memory (instrumental) 06:20
(viper by Mazz Swift)
10. I Feel Awake Even Though This is a Dream 07:47
(featuring words and vocals by Edie Brickell)

Жанр: World Fusion, Ethnic Jazz, Neo Indian Сlassical, Electronic, Acid Jazz
Страна-производитель диска: USA
Год издания: 2007
Издатель (лейбл): Suphala Productions
Страна: USA / India
Аудиокодек: FLAC (*.flac)
Тип рипа: tracks+.cue
Продолжительность: 00:53:02
Источник (релизер): вата (релизер - JACQHAR)
Наличие сканов в содержимом раздачи: нет
Доп. информация: http://suphala.com

Суфала Патанкар – искусная табла-исполнительница, композитор, продюсер, ученица Алла Ракхи и Закир Хусейна. Ее родители – выходцы из Индии. Ее отец – Suhas В. Patankar – известный индо-американский инженер-механик, пионер в области вычислительной гидродинамики и метода конечных объемов. С четырех лет Суфала обучалась музыкальному искусству, причем параллельно – игре на табла и на фортепиано. В ее работах классическая индийская традиция сочетается с современными аранжировками. Ее творчество изобилует неимоверным количеством различных жанров – от эйсид-джаза и фьюжна до нео-фолка и соула. Ее третий по счету альбом «Blueprint» был записан в студии, оборудованной в подвале дома Суфалы в Бруклине. На этом диске исполнительнице ассистируют многие известные музыканты – американская фолк-роковая певица Эди Брикелл, гитарист-виртуоз Вернон Рейд (один из основателей группы «Living Colour»), флейтист Ракеш Чаурасия (племянник и один из самых одаренных учеников легендарного Харипрасад Чаурасии), гитарист Харпер Саймон (сын знаменитого Пола Саймона) и другие.

 

Лог создания рипа
Exact Audio Copy V0.99 prebeta 4 from 23. January 2008

EAC extraction logfile from 9. August 2009, 0:05

Suphala / Blueprint

Used drive  : Optiarc DVD RW AD-7200S   Adapter: 2  ID: 1

Read mode               : Secure
Utilize accurate stream : Yes
Defeat audio cache      : Yes
Make use of C2 pointers : No

Read offset correction                      : 48
Overread into Lead-In and Lead-Out          : No
Fill up missing offset samples with silence : Yes
Delete leading and trailing silent blocks   : No
Null samples used in CRC calculations       : Yes
Used interface                              : Native Win32 interface for Win NT & 2000
Gap handling                                : Appended to previous track

Used output format              : User Defined Encoder
Selected bitrate                : 768 kBit/s
Quality                         : High
Add ID3 tag                     : No
Command line compressor         : D:\Program Files\FLAC\flac.exe
Additional command line options : -V -8 -T "artist=%a" -T "title=%t" -T "album=%g" -T "date=%y" -T "tracknumber=%n" -T "genre=%m" %s

TOC of the extracted CD

     Track |   Start  |  Length  | Start sector | End sector
    ---------------------------------------------------------
        1  |  0:00.00 |  4:29.33 |         0    |    20207
        2  |  4:29.33 |  4:56.09 |     20208    |    42416
        3  |  9:25.42 |  6:57.28 |     42417    |    73719
        4  | 16:22.70 |  3:34.48 |     73720    |    89817
        5  | 19:57.43 |  4:38.36 |     89818    |   110703
        6  | 24:36.04 |  3:49.29 |    110704    |   127907
        7  | 28:25.33 |  5:49.33 |    127908    |   154115
        8  | 34:14.66 |  4:40.18 |    154116    |   175133
        9  | 38:55.09 |  6:20.30 |    175134    |   203663
       10  | 45:15.39 |  7:46.57 |    203664    |   238670

Track  1

     Filename I:\Music\WCD\01. Maybe There's a Place Where Someday Just You and I Can Go (Suphala - Blueprint - 2007).wav

     Pre-gap length  0:00:02.00

     Peak level 96.6 %
     Track quality 100.0 %
     Test CRC 905F295B
     Copy CRC 905F295B
     Track not present in AccurateRip database
     Copy OK

Track  2

     Filename I:\Music\WCD\02. The Blank Page (Suphala - Blueprint - 2007).wav

     Peak level 96.6 %
     Track quality 100.0 %
     Test CRC 036F863A
     Copy CRC 036F863A
     Track not present in AccurateRip database
     Copy OK

Track  3

     Filename I:\Music\WCD\03. Underwater City (Suphala - Blueprint - 2007).wav

     Peak level 96.6 %
     Track quality 100.0 %
     Test CRC 31C710A8
     Copy CRC 31C710A8
     Track not present in AccurateRip database
     Copy OK

Track  4

     Filename I:\Music\WCD\04. Music Like A Memory (Suphala - Blueprint - 2007).wav

     Peak level 96.6 %
     Track quality 100.0 %
     Test CRC 2E11F3B0
     Copy CRC 2E11F3B0
     Track not present in AccurateRip database
     Copy OK

Track  5

     Filename I:\Music\WCD\05. Seventeen Birds Outside My Window (Suphala - Blueprint - 2007).wav

     Peak level 96.6 %
     Track quality 100.0 %
     Test CRC D1675AC3
     Copy CRC D1675AC3
     Track not present in AccurateRip database
     Copy OK

Track  6

     Filename I:\Music\WCD\06. Auramatic (Suphala - Blueprint - 2007).wav

     Peak level 96.6 %
     Track quality 100.0 %
     Test CRC A0669089
     Copy CRC A0669089
     Track not present in AccurateRip database
     Copy OK

Track  7

     Filename I:\Music\WCD\07. Unwind You (Suphala - Blueprint - 2007).wav

     Peak level 96.6 %
     Track quality 100.0 %
     Test CRC 29020B56
     Copy CRC 29020B56
     Track not present in AccurateRip database
     Copy OK

Track  8

     Filename I:\Music\WCD\08. Maybe There's a Place Where Someday Just You and I Can Go (Suphala - Blueprint - 2007).wav

     Peak level 96.6 %
     Track quality 99.9 %
     Test CRC 8BB25293
     Copy CRC 8BB25293
     Track not present in AccurateRip database
     Copy OK

Track  9

     Filename I:\Music\WCD\09. Music Like A Memory (instrumental) (Suphala - Blueprint - 2007).wav

     Peak level 96.6 %
     Track quality 100.0 %
     Test CRC 19327DD4
     Copy CRC 19327DD4
     Track not present in AccurateRip database
     Copy OK

Track 10

     Filename I:\Music\WCD\10. I Feel Awake Even Though This Is A Dream (Suphala - Blueprint - 2007).wav

     Peak level 96.6 %
     Track quality 100.0 %
     Test CRC 63037499
     Copy CRC 63037499
     Track not present in AccurateRip database
     Copy OK

None of the tracks are present in the AccurateRip database

No errors occurred

End of status report
Содержание индексной карты (.CUE)
REM GENRE Trance
REM DATE 2007
REM DISCID 970C6E0A
REM COMMENT "ExactAudioCopy v0.99pb4"
FILE "01. Maybe There's a Place Where Someday Just You and I Can Go (Suphala - Blueprint - 2007).wav" WAVE
  TRACK 01 AUDIO
    INDEX 01 00:00:00
FILE "02. The Blank Page (Suphala - Blueprint - 2007).wav" WAVE
  TRACK 02 AUDIO
    INDEX 01 00:00:00
FILE "03. Underwater City (Suphala - Blueprint - 2007).wav" WAVE
  TRACK 03 AUDIO
    INDEX 01 00:00:00
FILE "04. Music Like A Memory (Suphala - Blueprint - 2007).wav" WAVE
  TRACK 04 AUDIO
    INDEX 01 00:00:00
FILE "05. Seventeen Birds Outside My Window (Suphala - Blueprint - 2007).wav" WAVE
  TRACK 05 AUDIO
    INDEX 01 00:00:00
FILE "06. Auramatic (Suphala - Blueprint - 2007).wav" WAVE
  TRACK 06 AUDIO
    INDEX 01 00:00:00
FILE "07. Unwind You (Suphala - Blueprint - 2007).wav" WAVE
  TRACK 07 AUDIO
    INDEX 01 00:00:00
FILE "08. Maybe There's a Place Where Someday Just You and I Can Go (Suphala - Blueprint - 2007).wav" WAVE
  TRACK 08 AUDIO
    INDEX 01 00:00:00
FILE "09. Music Like A Memory (instrumental) (Suphala - Blueprint - 2007).wav" WAVE
  TRACK 09 AUDIO
    INDEX 01 00:00:00
FILE "10. I Feel Awake Even Though This Is A Dream (Suphala - Blueprint - 2007).wav" WAVE
  TRACK 10 AUDIO
    INDEX 01 00:00:00
08:58
316
Нет комментариев. Ваш будет первым!