Поиск

(Jazz, World Fusion, Guitar) Kevin Seddiki - Il Sentiero - 2012, FLAC (tracks+.cue), lossless

(Jazz, World Fusion, Guitar) Kevin Seddiki - Il Sentiero - 2012, FLAC (tracks+.cue), lossless
Треклист:
Kevin Seddiki / Il Sentiero
Жанр: Jazz, World Fusion, Guitar
Страна-производитель диска: Germany
Год издания: 2012
Издатель (лейбл): Wildner Records
Номер по каталогу: KWW 58210
Страна: France
Аудиокодек: FLAC (*.flac)
Тип рипа: tracks+.cue
Битрейт аудио: lossless
Продолжительность: 53:39
Источник (релизер): t411
Наличие сканов в содержимом раздачи: да
Треклист:
01. Rivages [05:49]
02. Balafon [04:48]
03. L'Enfant et l'Arbre [05:23]
04. Mélodie du Bonheur [04:53]
05. 2 Zarbs [02:53]
06. Retrato em Branco e Preto [05:48]
07. Tarantelle [04:33]
08. Il Sentiero [02:52]
09. Aprés la Pluie [03:37]
10. Milonga de Navidad (Para Dino) [06:23]
11. Chercheurs d'Or [06:40]
 
Лог создания рипа
Exact Audio Copy V1.0 beta 3 from 29. August 2011
EAC extraction logfile from 14. January 2013, 14:13
Kevin Seddiki / Il Sentiero
Used drive : PLEXTOR DVDR PX-860A Adapter: 0 ID: 0
Read mode : Secure
Utilize accurate stream : Yes
Defeat audio cache : Yes
Make use of C2 pointers : No
Read offset correction : 96
Overread into Lead-In and Lead-Out : No
Fill up missing offset samples with silence : Yes
Delete leading and trailing silent blocks : No
Null samples used in CRC calculations : Yes
Used interface : Native Win32 interface for Win NT & 2000
Gap handling : Appended to previous track
Used output format : User Defined Encoder
Selected bitrate : 1024 kBit/s
Quality : High
Add ID3 tag : No
Command line compressor : C:\Program Files\Exact Audio Copy\Flac\flac.exe
Additional command line options : -8 -V -T "ARTIST=%artist%" -T "TITLE=%title%" -T "ALBUM=%albumtitle%" -T "DATE=%year%" -T "TRACKNUMBER=%tracknr%" -T "GENRE=%genre%" -T "PERFORMER=%albuminterpret%" -T "COMPOSER=%composer%" %haslyrics%--tag-from-file=LYRICS="%lyricsfile%"%haslyrics% -T "ALBUMARTIST=%albumartist%" -T "DISCNUMBER=%cdnumber%" -T "TOTALDISCS=%totalcds%" -T "TOTALTRACKS=%numtracks%" -T "COMMENT=EAC Secure Mode, Test & Copy, AccurateRip, FLAC -8" %source% -o %dest%
TOC of the extracted CD
Track | Start | Length | Start sector | End sector
---------------------------------------------------------
1 | 0:00.00 | 5:45.52 | 0 | 25926
2 | 5:45.52 | 4:42.23 | 25927 | 47099
3 | 10:28.00 | 5:14.37 | 47100 | 70686
4 | 15:42.37 | 4:47.01 | 70687 | 92212
5 | 20:29.38 | 2:47.43 | 92213 | 104780
6 | 23:17.06 | 5:42.46 | 104781 | 130476
7 | 28:59.52 | 4:16.43 | 130477 | 149719
8 | 33:16.20 | 2:46.42 | 149720 | 162211
9 | 36:02.62 | 3:35.23 | 162212 | 178359
10 | 39:38.10 | 5:36.69 | 178360 | 203628
11 | 45:15.04 | 6:34.59 | 203629 | 233237
Track 1
Filename I:\DL\Kevin Seddiki - Il Sentiero (2012) [FLAC]\01 - Rivages.wav
Pre-gap length 0:00:02.00
Peak level 98.0 %
Extraction speed 5.0 X
Track quality 100.0 %
Test CRC BCEB6233
Copy CRC BCEB6233
Track not present in AccurateRip database
Copy OK
Track 2
Filename I:\DL\Kevin Seddiki - Il Sentiero (2012) [FLAC]\02 - Balafon.wav
Peak level 97.9 %
Extraction speed 5.4 X
Track quality 100.0 %
Test CRC E8FB207B
Copy CRC E8FB207B
Track not present in AccurateRip database
Copy OK
Track 3
Filename I:\DL\Kevin Seddiki - Il Sentiero (2012) [FLAC]\03 - L'Enfant et l'Arbre.wav
Peak level 98.0 %
Extraction speed 6.0 X
Track quality 100.0 %
Test CRC B206B510
Copy CRC B206B510
Track not present in AccurateRip database
Copy OK
Track 4
Filename I:\DL\Kevin Seddiki - Il Sentiero (2012) [FLAC]\04 - Melodie du Bonheur.wav
Pre-gap length 0:00:01.08
Peak level 98.0 %
Extraction speed 6.4 X
Track quality 100.0 %
Test CRC DAF777CB
Copy CRC DAF777CB
Track not present in AccurateRip database
Copy OK
Track 5
Filename I:\DL\Kevin Seddiki - Il Sentiero (2012) [FLAC]\05 - 2 Zarbs.wav
Peak level 98.0 %
Extraction speed 6.1 X
Track quality 100.0 %
Test CRC D587E256
Copy CRC D587E256
Track not present in AccurateRip database
Copy OK
Track 6
Filename I:\DL\Kevin Seddiki - Il Sentiero (2012) [FLAC]\06 - Retrato em Branco e Preto.wav
Peak level 98.0 %
Extraction speed 6.5 X
Track quality 99.9 %
Test CRC 20829674
Copy CRC 20829674
Track not present in AccurateRip database
Copy OK
Track 7
Filename I:\DL\Kevin Seddiki - Il Sentiero (2012) [FLAC]\07 - Tarantelle.wav
Pre-gap length 0:00:01.38
Peak level 98.0 %
Extraction speed 7.0 X
Track quality 100.0 %
Test CRC 7E0135CF
Copy CRC 7E0135CF
Track not present in AccurateRip database
Copy OK
Track 8
Filename I:\DL\Kevin Seddiki - Il Sentiero (2012) [FLAC]\08 - Il Sentiero.wav
Pre-gap length 0:00:01.04
Peak level 96.9 %
Extraction speed 6.9 X
Track quality 100.0 %
Test CRC 9319C6D8
Copy CRC 9319C6D8
Track not present in AccurateRip database
Copy OK
Track 9
Filename I:\DL\Kevin Seddiki - Il Sentiero (2012) [FLAC]\09 - Apres la Pluie.wav
Pre-gap length 0:00:01.26
Peak level 82.1 %
Extraction speed 7.3 X
Track quality 100.0 %
Test CRC B046E5E2
Copy CRC B046E5E2
Track not present in AccurateRip database
Copy OK
Track 10
Filename I:\DL\Kevin Seddiki - Il Sentiero (2012) [FLAC]\10 - Milonga de Navidad (Para Dino).wav
Pre-gap length 0:00:01.08
Peak level 98.0 %
Extraction speed 7.2 X
Track quality 99.9 %
Test CRC 18491815
Copy CRC 18491815
Track not present in AccurateRip database
Copy OK
Track 11
Filename I:\DL\Kevin Seddiki - Il Sentiero (2012) [FLAC]\11 - Chercheurs d'Or.wav
Peak level 98.0 %
Extraction speed 8.3 X
Track quality 100.0 %
Test CRC 04041842
Copy CRC 04041842
Track not present in AccurateRip database
Copy OK
None of the tracks are present in the AccurateRip database
No errors occurred
End of status report
---- CUETools DB Plugin V2.1.3
[CTDB TOCID: YLWIQFSqmkqDD37570rKo5XMq2M-] found, Submit result: already submitted
[16202f04] (1/1) Accurately ripped
==== Log checksum 3E3D2E3EA134FF3D178386FF6D0BA27AA05A3F15A5D979AF1554BD3B4AACB9DC ====
 
Содержание индексной карты (.CUE)
REM GENRE Jazz
REM DATE 2012
REM DISCID 9A0C250B
REM COMMENT "ExactAudioCopy v1.0b3"
PERFORMER "Kevin Seddiki"
TITLE "Il Sentiero"
FILE "01 - Rivages.wav" WAVE
TRACK 01 AUDIO
TITLE "Rivages"
PERFORMER "Kevin Seddiki"
INDEX 01 00:00:00
FILE "02 - Balafon.wav" WAVE
TRACK 02 AUDIO
TITLE "Balafon"
PERFORMER "Kevin Seddiki"
INDEX 01 00:00:00
FILE "03 - L'Enfant et l'Arbre.wav" WAVE
TRACK 03 AUDIO
TITLE "L'Enfant et l'Arbre"
PERFORMER "Kevin Seddiki"
INDEX 01 00:00:00
TRACK 04 AUDIO
TITLE "Mйlodie du Bonheur"
PERFORMER "Kevin Seddiki"
INDEX 00 05:13:31
FILE "04 - Melodie du Bonheur.wav" WAVE
INDEX 01 00:00:00
FILE "05 - 2 Zarbs.wav" WAVE
TRACK 05 AUDIO
TITLE "2 Zarbs"
PERFORMER "Kevin Seddiki"
INDEX 01 00:00:00
FILE "06 - Retrato em Branco e Preto.wav" WAVE
TRACK 06 AUDIO
TITLE "Retrato em Branco e Preto"
PERFORMER "Kevin Seddiki"
INDEX 01 00:00:00
TRACK 07 AUDIO
TITLE "Tarantelle"
PERFORMER "Kevin Seddiki"
INDEX 00 05:41:17
FILE "07 - Tarantelle.wav" WAVE
INDEX 01 00:00:00
TRACK 08 AUDIO
TITLE "Il Sentiero"
PERFORMER "Kevin Seddiki"
INDEX 00 04:15:40
FILE "08 - Il Sentiero.wav" WAVE
INDEX 01 00:00:00
TRACK 09 AUDIO
TITLE "Aprиs la Pluie"
PERFORMER "Kevin Seddiki"
INDEX 00 02:45:22
FILE "09 - Apres la Pluie.wav" WAVE
INDEX 01 00:00:00
TRACK 10 AUDIO
TITLE "Milonga de Navidad (Para Dino)"
PERFORMER "Kevin Seddiki"
INDEX 00 03:34:17
FILE "10 - Milonga de Navidad (Para Dino).wav" WAVE
INDEX 01 00:00:00
FILE "11 - Chercheurs d'Or.wav" WAVE
TRACK 11 AUDIO
TITLE "Chercheurs d'Or"
PERFORMER "Kevin Seddiki"
INDEX 01 00:00:00
 
Лог проверки качества
AUDIOCHECKER v2.0 beta (build 457) - by Dester - opdester@freemail.hu
~~~~~~~~~~~~~~~~~~~~~~~~~~~~~~~~~~
-=== DO NOT EDIT THIS FILE! ===-
Path: ...\Kevin Seddiki - 2012 - Il Sentiero
01 -=- 01 - Rivages.flac -=- CDDA (100%)
02 -=- 02 - Balafon.flac -=- CDDA (100%)
03 -=- 03 - L'Enfant et l'Arbre.flac -=- CDDA (100%)
04 -=- 04 - Melodie du Bonheur.flac -=- CDDA (100%)
05 -=- 05 - 2 Zarbs.flac -=- CDDA (100%)
06 -=- 06 - Retrato em Branco e Preto.flac -=- MPEG (90%)
07 -=- 07 - Tarantelle.flac -=- CDDA (100%)
08 -=- 08 - Il Sentiero.flac -=- CDDA (100%)
09 -=- 09 - Apres la Pluie.flac -=- CDDA (100%)
10 -=- 10 - Milonga de Navidad (Para Dino).flac -=- CDDA (100%)
11 -=- 11 - Chercheurs d'Or.flac -=- CDDA (100%)
Summary 91,82% CDDA
231864548
 
Об исполнителе (группе)
Kevin Seddiki was born in France in 1981. He is mainly known as a guitar player, but also composes, and play Iranian drum called Zarb, or Tombak. He studied classical guitar with Pablo Marquez, but always has been intersted in improvisation, and very different music styles. His curiosity and versatility lead him to various collaborations with reknowned masters from different areas, from classical to Jazz, and experiences with traditionnal music from Argentina, Greece, Iran or Madagascar.
Here are some of them: AL di Meola, Dino Saluzzi, Regis Gizavo, Bijan Chemirani, Ensemble Ibn Arabi, Olivier Ker Ourio, Urna chahar Tugchi...).
In 2009, he won the prestigious European Guitar Award (Germany), and since 2010 he is touring with the Al di Meola band "World Sinfonia" who just released the new album Pursuit of Rhadical rhapsody. He is also part of the band Oneira and will release his first album under his name in September 2011, for the german Label Wildner Records.
 
Состав
Daniele Di Bonaventura - bandonéon
Olivier Ker Ourio - harmonica
Bijan Chemirani - percussions
Paolo Pandolfo - viole de gambe
Maria Simoglou - chant
Kevin Seddiki - guitares and percussions
предпрослушка
08:58
269
Нет комментариев. Ваш будет первым!