Поиск

(Brazilian Folk, Latin Jazz, World Fusion) Gilberto Gil - Expresso 2222 04228489392 [2012, Remaster] - 1972, FLAC (image+.cue), lossless

(Brazilian Folk, Latin Jazz, World Fusion) Gilberto Gil - Expresso 2222 04228489392 [2012, Remaster] - 1972, FLAC (image+.cue), lossless
Треклист:
Gilberto Gil / Expresso 2222 [40th Special Anniversary Edition]
Жанр: Brazilian Folk, Latin Jazz, World Fusion
Страна-производитель диска: Brazil
Год издания: 1972
Издатель (лейбл): Universal Music
Номер по каталогу: 04228489392
Страна: Brazil
Аудиокодек: FLAC (*.flac)
Тип рипа: image+.cue
Битрейт аудио: lossless
Продолжительность: 34:25
Источник (релизер): Own CD
Наличие сканов в содержимом раздачи: да
Треклист:
01. Pipoca Moderna (feat. Banda de Pífanos de Caruaru) (02:00)
02. Back In Bahia (04:39)
03. O Canto da Ema (06:25)
04. Chiclete com Banana (03:26)
05. Ele e Eu (02:19)
06. Sai do Sereno (feat. Gal Costa) (03:22)
07. Expresso 2222 (02:40)
08. O Sonho Acabou (03:34)
09. Oriente (06:01)
 
Лог создания рипа
Exact Audio Copy V1.0 beta 3 from 29. August 2011
EAC extraction logfile from 27. January 2013, 8:51
Gilberto Gil / Expresso 2222 04228489392 [2012 Remaster]
Used drive : Optiarc DVD RW AD-7260S Adapter: 0 ID: 1
Read mode : Secure
Utilize accurate stream : Yes
Defeat audio cache : Yes
Make use of C2 pointers : No
Read offset correction : 48
Overread into Lead-In and Lead-Out : No
Fill up missing offset samples with silence : Yes
Delete leading and trailing silent blocks : No
Null samples used in CRC calculations : Yes
Used interface : Native Win32 interface for Win NT & 2000
Used output format : User Defined Encoder
Selected bitrate : 1024 kBit/s
Quality : High
Add ID3 tag : No
Command line compressor : C:\Program Files\Exact Audio Copy\FLAC\FLAC.EXE
Additional command line options : -V -8 -T "artist=%artist%" -T "title=%title%" -T "album=%albumtitle%" -T "date=%year%" -T "tracknumber=%tracknr%" -T "genre=%genre%" %source%
TOC of the extracted CD
Track | Start | Length | Start sector | End sector
---------------------------------------------------------
1 | 0:00.00 | 2:00.19 | 0 | 9018
2 | 2:00.19 | 4:38.53 | 9019 | 29921
3 | 6:38.72 | 6:24.41 | 29922 | 58762
4 | 13:03.38 | 3:25.55 | 58763 | 74192
5 | 16:29.18 | 2:18.63 | 74193 | 84605
6 | 18:48.06 | 3:22.10 | 84606 | 99765
7 | 22:10.16 | 2:39.61 | 99766 | 111751
8 | 24:50.02 | 3:34.28 | 111752 | 127829
9 | 28:24.30 | 6:01.03 | 127830 | 154907
Range status and errors
Selected range
Filename C:\Users\João_Paulo\Music\Gilberto Gil\Albums\[1972] Expresso 2222 04228489392 [2012 Remaster]\Gilberto Gil - Expresso 2222 04228489392 [2012 Remaster].wav
Peak level 97.7 %
Extraction speed 3.3 X
Range quality 100.0 %
Test CRC 35BFA56B
Copy CRC 35BFA56B
Copy OK
No errors occurred
AccurateRip summary
Track 1 not present in database
Track 2 not present in database
Track 3 not present in database
Track 4 not present in database
Track 5 not present in database
Track 6 not present in database
Track 7 not present in database
Track 8 not present in database
Track 9 not present in database
None of the tracks are present in the AccurateRip database
End of status report
==== Log checksum 20C3C64DC151524CA4835FD361CC18BF607CE1013C2FA2757C09D58B4F2F3E0E ====
 
Содержание индексной карты (.CUE)
REM DATE 1972
REM DISCID 5E081109
REM COMMENT "ExactAudioCopy v1.0b3"
PERFORMER "Gilberto Gil"
TITLE "Expresso 2222 04228489392 [2012 Remaster]"
FILE "Gilberto Gil - Expresso 2222 04228489392 [2012 Remaster].flac" WAVE
TRACK 01 AUDIO
TITLE "Pipoca Moderna"
PERFORMER "Gilberto Gil"
INDEX 01 00:00:00
TRACK 02 AUDIO
TITLE "Back In Bahia"
PERFORMER "Gilberto Gil"
INDEX 01 02:00:19
TRACK 03 AUDIO
TITLE "O Canto da Ema"
PERFORMER "Gilberto Gil"
INDEX 01 06:38:72
TRACK 04 AUDIO
TITLE "Chiclete com Banana"
PERFORMER "Gilberto Gil"
INDEX 00 13:01:73
INDEX 01 13:03:38
TRACK 05 AUDIO
TITLE "Ele e Eu"
PERFORMER "Gilberto Gil"
INDEX 01 16:29:18
TRACK 06 AUDIO
TITLE "Sai do Sereno"
PERFORMER "Gilberto Gil"
INDEX 01 18:48:06
TRACK 07 AUDIO
TITLE "Expresso 2222"
PERFORMER "Gilberto Gil"
INDEX 01 22:10:16
TRACK 08 AUDIO
TITLE "O Sonho Acabou"
PERFORMER "Gilberto Gil"
INDEX 01 24:50:02
TRACK 09 AUDIO
TITLE "Oriente"
PERFORMER "Gilberto Gil"
INDEX 01 28:24:30
 
Доп. информация (ENG)
40th Anniversay Edition of Gil's masterpiece. Remastered in Abbey Road Studios by Steve Rooke. Includes the original graphic design of LP cover adapted for new CD.
09:57
246
Нет комментариев. Ваш будет первым!