Поиск

(Bossa Nova, Brazilian Jazz) Stan Getz & Luiz Bonfa - Jazz Samba Encore! {1963} - 1999, FLAC (tracks+.cue), lossless

(Bossa Nova, Brazilian Jazz) Stan Getz & Luiz Bonfa - Jazz Samba Encore! {1963} - 1999, FLAC (tracks+.cue), lossless
Треклист:
•Stan Getz & Luiz Bonfa - Jazz Samba Encore! {1963}•
Жанр: Bossa Nova, Brazilian Jazz
Страна-производитель диска: Россия
Год издания: 1999
Издатель (лейбл): ADA Sound
Номер по каталогу: ADASD07004
Аудиокодек: FLAC (*.flac)
Тип рипа: tracks+.cue
Битрейт аудио: lossless
Продолжительность: 00:43:59
Источник (релизер): Рип с диска.
Наличие сканов в содержимом раздачи: да
Треклист:
01. Sambalero [02:08]
02. So Danco Samba (I Only Dance Samba) [03:38]
03. Insensatez (How Insensitive) [03:23]
04. O Morro Nao Tem Vez [06:54]
05. Samba De Duas Notas (Two Note Samba) [04:21]
06. Menina Flor [04:11]
07. Mania De Maria [02:45]
08. Saudade Vem Correndo [03:40]
09. Um Abraco No Getz (A Tribute To Getz) [04:26]
10. Ebony Samba (second version) [04:39]
11. Ebony Samba (first version) [03:48]
Personnel:
Stan Getz - ts
Don Payne - b
George Duvivier - b
Tommy Williams - b
Dave Bailey - dr
Jose Carlos - dr
Paulo Ferreira - perc.
Antonio Carlos Jobim - g
Luiz Bonfa - g
Maria Toledo - voc
 
Лог создания рипа
Exact Audio Copy V1.0 beta 3 from 29. August 2011
EAC extraction logfile from 29. January 2013, 14:52
Stan Getz & Luiz Bonfa / Jazz Samba Encore!
Used drive : ATAPI iHAS124 D Adapter: 1 ID: 0
Read mode : Secure
Utilize accurate stream : Yes
Defeat audio cache : Yes
Make use of C2 pointers : No
Read offset correction : 6
Overread into Lead-In and Lead-Out : No
Fill up missing offset samples with silence : Yes
Delete leading and trailing silent blocks : No
Null samples used in CRC calculations : Yes
Used interface : Native Win32 interface for Win NT & 2000
Gap handling : Appended to previous track
Used output format : User Defined Encoder
Selected bitrate : 128 kBit/s
Quality : High
Add ID3 tag : No
Command line compressor : C:\Program Files (x86)\Exact Audio Copy\Flac\flac.exe
Additional command line options : -V -8 -T "Genre=%genre%" -T "Artist=%artist%" -T "Title=%title%" -T "Album=%albumtitle%" -T "Date=%year%" -T "Tracknumber=%tracknr%" -T "Comment=%comment%" %source%
TOC of the extracted CD
Track | Start | Length | Start sector | End sector
---------------------------------------------------------
1 | 0:00.33 | 2:08.70 | 33 | 9702
2 | 2:09.28 | 3:38.55 | 9703 | 26107
3 | 5:48.08 | 3:23.32 | 26108 | 41364
4 | 9:11.40 | 6:54.65 | 41365 | 72479
5 | 16:06.30 | 4:21.28 | 72480 | 92082
6 | 20:27.58 | 4:11.45 | 92083 | 110952
7 | 24:39.28 | 2:45.05 | 110953 | 123332
8 | 27:24.33 | 3:40.07 | 123333 | 139839
9 | 31:04.40 | 4:26.68 | 139840 | 159857
10 | 35:31.33 | 4:39.72 | 159858 | 180854
11 | 40:11.30 | 3:48.58 | 180855 | 198012
Track 1
Filename D:\1999.Stan Getz & Luiz Bonfa - Jazz Samba Encore!\01. Sambalero.wav
Pre-gap length 0:00:02.33
Peak level 72.7 %
Extraction speed 5.1 X
Track quality 100.0 %
Test CRC 38DE2AA0
Copy CRC 38DE2AA0
Copy OK
Track 2
Filename D:\1999.Stan Getz & Luiz Bonfa - Jazz Samba Encore!\02. So Danco Samba (I Only Dance Samba).wav
Pre-gap length 0:00:00.58
Peak level 80.0 %
Extraction speed 6.0 X
Track quality 100.0 %
Test CRC EA593AD2
Copy CRC EA593AD2
Copy OK
Track 3
Filename D:\1999.Stan Getz & Luiz Bonfa - Jazz Samba Encore!\03. Insensatez (How Insensitive).wav
Pre-gap length 0:00:02.38
Peak level 82.5 %
Extraction speed 6.4 X
Track quality 100.0 %
Test CRC 341039E9
Copy CRC 341039E9
Copy OK
Track 4
Filename D:\1999.Stan Getz & Luiz Bonfa - Jazz Samba Encore!\04. O Morro Nao Tem Vez.wav
Pre-gap length 0:00:02.25
Peak level 84.3 %
Extraction speed 7.5 X
Track quality 100.0 %
Test CRC 203A1793
Copy CRC 203A1793
Copy OK
Track 5
Filename D:\1999.Stan Getz & Luiz Bonfa - Jazz Samba Encore!\05. Samba De Duas Notas (Two Note Samba).wav
Pre-gap length 0:00:01.30
Peak level 89.5 %
Extraction speed 7.8 X
Track quality 100.0 %
Test CRC 74F011C3
Copy CRC 74F011C3
Copy OK
Track 6
Filename D:\1999.Stan Getz & Luiz Bonfa - Jazz Samba Encore!\06. Menina Flor.wav
Pre-gap length 0:00:02.63
Peak level 81.5 %
Extraction speed 8.1 X
Track quality 100.0 %
Test CRC 214A8FAB
Copy CRC 214A8FAB
Copy OK
Track 7
Filename D:\1999.Stan Getz & Luiz Bonfa - Jazz Samba Encore!\07. Mania De Maria.wav
Pre-gap length 0:00:03.03
Peak level 79.4 %
Extraction speed 8.0 X
Track quality 100.0 %
Test CRC 98CB6C36
Copy CRC 98CB6C36
Copy OK
Track 8
Filename D:\1999.Stan Getz & Luiz Bonfa - Jazz Samba Encore!\08. Saudade Vem Correndo.wav
Pre-gap length 0:00:01.65
Peak level 68.9 %
Extraction speed 7.6 X
Track quality 99.9 %
Test CRC DC2B1179
Copy CRC DC2B1179
Copy OK
Track 9
Filename D:\1999.Stan Getz & Luiz Bonfa - Jazz Samba Encore!\09. Um Abraco No Getz (A Tribute To Getz).wav
Pre-gap length 0:00:01.00
Peak level 85.5 %
Extraction speed 8.2 X
Track quality 99.9 %
Test CRC 73FC5703
Copy CRC 73FC5703
Copy OK
Track 10
Filename D:\1999.Stan Getz & Luiz Bonfa - Jazz Samba Encore!\10. Ebony Samba (second version).wav
Pre-gap length 0:00:03.48
Peak level 81.4 %
Extraction speed 9.6 X
Track quality 100.0 %
Test CRC 9C802D2F
Copy CRC 9C802D2F
Copy OK
Track 11
Filename D:\1999.Stan Getz & Luiz Bonfa - Jazz Samba Encore!\11. Ebony Samba (first version).wav
Pre-gap length 0:00:06.00
Peak level 72.4 %
Extraction speed 8.6 X
Track quality 99.9 %
Test CRC 840594AC
Copy CRC 840594AC
Copy OK
No errors occurred
End of status report
==== Log checksum 8C64EA663C4FB565742C790594A3EC6C5B75DD629326A8E276AAEAF7AB0B292A ====
 
Содержание индексной карты (.CUE)
REM GENRE Jazz
REM DATE 1963
REM DISCID 880A500B
REM COMMENT "ExactAudioCopy v1.0b3"
PERFORMER "Stan Getz & Luiz Bonfa"
TITLE "Jazz Samba Encore!"
FILE "01. Sambalero.wav" WAVE
TRACK 01 AUDIO
TITLE "Sambalero"
PERFORMER "Stan Getz & Luiz Bonfa"
PREGAP 00:00:33
INDEX 01 00:00:00
TRACK 02 AUDIO
TITLE "So Danco Samba (I Only Dance Samba)"
PERFORMER "Stan Getz & Luiz Bonfa"
INDEX 00 02:08:12
FILE "02. So Danco Samba (I Only Dance Samba).wav" WAVE
INDEX 01 00:00:00
TRACK 03 AUDIO
TITLE "Insensatez (How Insensitive)"
PERFORMER "Stan Getz & Luiz Bonfa"
INDEX 00 03:36:17
FILE "03. Insensatez (How Insensitive).wav" WAVE
INDEX 01 00:00:00
TRACK 04 AUDIO
TITLE "O Morro Nao Tem Vez"
PERFORMER "Stan Getz & Luiz Bonfa"
INDEX 00 03:21:07
FILE "04. O Morro Nao Tem Vez.wav" WAVE
INDEX 01 00:00:00
TRACK 05 AUDIO
TITLE "Samba De Duas Notas (Two Note Samba)"
PERFORMER "Stan Getz & Luiz Bonfa"
INDEX 00 06:53:35
FILE "05. Samba De Duas Notas (Two Note Samba).wav" WAVE
INDEX 01 00:00:00
TRACK 06 AUDIO
TITLE "Menina Flor"
PERFORMER "Stan Getz & Luiz Bonfa"
INDEX 00 04:18:40
FILE "06. Menina Flor.wav" WAVE
INDEX 01 00:00:00
TRACK 07 AUDIO
TITLE "Mania De Maria"
PERFORMER "Stan Getz & Luiz Bonfa"
INDEX 00 04:08:42
FILE "07. Mania De Maria.wav" WAVE
INDEX 01 00:00:00
TRACK 08 AUDIO
TITLE "Saudade Vem Correndo"
PERFORMER "Stan Getz & Luiz Bonfa"
INDEX 00 02:43:15
FILE "08. Saudade Vem Correndo.wav" WAVE
INDEX 01 00:00:00
TRACK 09 AUDIO
TITLE "Um Abraco No Getz (A Tribute To Getz)"
PERFORMER "Stan Getz & Luiz Bonfa"
INDEX 00 03:39:07
FILE "09. Um Abraco No Getz (A Tribute To Getz).wav" WAVE
INDEX 01 00:00:00
TRACK 10 AUDIO
TITLE "Ebony Samba (second version)"
PERFORMER "Stan Getz & Luiz Bonfa"
INDEX 00 04:23:20
FILE "10. Ebony Samba (second version).wav" WAVE
INDEX 01 00:00:00
TRACK 11 AUDIO
TITLE "Ebony Samba (first version)"
PERFORMER "Stan Getz & Luiz Bonfa"
INDEX 00 04:33:72
FILE "11. Ebony Samba (first version).wav" WAVE
INDEX 01 00:00:00
10:00
232
Нет комментариев. Ваш будет первым!