Поиск

(World Fusion, Latin Jazz) Jorge Pardo, Ernesto Hermoza, Juan Medrano Cotito - Puerta Del Sol - 2013, FLAC (tracks+.cue), lossless

(World Fusion, Latin Jazz) Jorge Pardo, Ernesto Hermoza, Juan Medrano Cotito - Puerta Del Sol - 2013, FLAC (tracks+.cue), lossless
Треклист:
♦ Jorge Pardo, Ernesto Hermoza, Juan Medrano Cotito - Puerta Del Sol ♦
Жанр: World Fusion, Latin Jazz
Страна-производитель диска: Spain
Год издания: 2013
Издатель (лейбл): Karonte
Номер по каталогу: KAR7843
Аудиокодек: FLAC (*.flac)
Тип рипа: tracks+.cue
Битрейт аудио: lossless
Продолжительность: 01:05:04
Источник (релизер): jlgt
Наличие сканов в содержимом раздачи: да
Треклист:
01. El Aire de la Tierra [08:59]
02. Navegando Hacia las Indias [07:52]
03. Locos y Poetas [03:59]
04. Ollita Vo a Baila [07:07]
05. Meme Neguito [02:02]
06. Su Sueno [05:16]
07. Tiempo de Leyenda [02:03]
08. De Occidente a Oriente [09:21]
09. La Leyenda Continua [03:41]
10. A las Cumbres Subi [05:17]
11. Herencia Flamenca [03:48]
12. A los Valles Baje [05:33]
 
Лог создания рипа
Exact Audio Copy V1.0 beta 3 from 29. August 2011
EAC extraction logfile from 16. June 2013, 14:13
Jorge Pardo, Ernesto Hermoza, Juan Medrano Cotito / Puerta del Sol
Used drive : PLEXTOR DVDR PX-L890SA Adapter: 2 ID: 1
Read mode : Secure
Utilize accurate stream : Yes
Defeat audio cache : Yes
Make use of C2 pointers : No
Read offset correction : 6
Overread into Lead-In and Lead-Out : No
Fill up missing offset samples with silence : Yes
Delete leading and trailing silent blocks : No
Null samples used in CRC calculations : Yes
Used interface : Native Win32 interface for Win NT & 2000
Gap handling : Appended to previous track
Used output format : User Defined Encoder
Selected bitrate : 256 kBit/s
Quality : High
Add ID3 tag : No
Command line compressor : C:\Program Files (x86)\Exact Audio Copy\FLAC\FLAC.EXE
Additional command line options : -8 -V -T "ARTIST=%artist%" -T "TITLE=%title%" -T "ALBUM=%albumtitle%" -T "DATE=%year%" -T "TRACKNUMBER=%tracknr%" -T "TOTALTRACKS=%numtracks%" -T "GENRE=%genre%" -T "ALBUMARTIST=%albumartist%" -T "ALBUM ARTIST=%albumartist%" -T "COMMENT=EAC Secure Mode, Test & Copy, AccurateRip, FLAC -8" %source%
TOC of the extracted CD
Track | Start | Length | Start sector | End sector
---------------------------------------------------------
1 | 0:00.00 | 8:59.72 | 0 | 40496
2 | 8:59.72 | 7:52.11 | 40497 | 75907
3 | 16:52.08 | 3:59.01 | 75908 | 93833
4 | 20:51.09 | 7:07.33 | 93834 | 125891
5 | 27:58.42 | 2:02.23 | 125892 | 135064
6 | 30:00.65 | 5:16.70 | 135065 | 158834
7 | 35:17.60 | 2:03.70 | 158835 | 168129
8 | 37:21.55 | 9:21.07 | 168130 | 210211
9 | 46:42.62 | 3:41.63 | 210212 | 226849
10 | 50:24.50 | 5:17.54 | 226850 | 250678
11 | 55:42.29 | 3:48.69 | 250679 | 267847
12 | 59:31.23 | 5:33.27 | 267848 | 292849
Track 1
Filename F:\Flac Rips\01 - El Aire de la Tierra.wav
Pre-gap length 0:00:02.00
Peak level 100.0 %
Extraction speed 4.3 X
Track quality 100.0 %
Test CRC CDD89F23
Copy CRC CDD89F23
Track not present in AccurateRip database
Copy OK
Track 2
Filename F:\Flac Rips\02 - Navegando Hacia las Indias.wav
Pre-gap length 0:00:02.00
Peak level 100.0 %
Extraction speed 5.0 X
Track quality 100.0 %
Test CRC 2CCE6A50
Copy CRC 2CCE6A50
Track not present in AccurateRip database
Copy OK
Track 3
Filename F:\Flac Rips\03 - Locos y Poetas.wav
Pre-gap length 0:00:02.00
Peak level 100.0 %
Extraction speed 4.1 X
Track quality 99.9 %
Test CRC 432743E3
Copy CRC 432743E3
Track not present in AccurateRip database
Copy OK
Track 4
Filename F:\Flac Rips\04 - Ollita Vo a Baila.wav
Peak level 100.0 %
Extraction speed 5.8 X
Track quality 100.0 %
Test CRC AF5AE8AE
Copy CRC AF5AE8AE
Track not present in AccurateRip database
Copy OK
Track 5
Filename F:\Flac Rips\05 - Meme Neguito.wav
Pre-gap length 0:00:02.00
Peak level 98.9 %
Extraction speed 5.0 X
Track quality 100.0 %
Test CRC C4FA05E5
Copy CRC C4FA05E5
Track not present in AccurateRip database
Copy OK
Track 6
Filename F:\Flac Rips\06 - Su Sueno.wav
Peak level 100.0 %
Extraction speed 6.1 X
Track quality 100.0 %
Test CRC 3E9EFCCB
Copy CRC 3E9EFCCB
Track not present in AccurateRip database
Copy OK
Track 7
Filename F:\Flac Rips\07 - Tiempo de Leyenda.wav
Pre-gap length 0:00:02.00
Peak level 99.9 %
Extraction speed 5.4 X
Track quality 100.0 %
Test CRC E72CD13F
Copy CRC E72CD13F
Track not present in AccurateRip database
Copy OK
Track 8
Filename F:\Flac Rips\08 - De Occidente a Oriente.wav
Peak level 100.0 %
Extraction speed 6.3 X
Track quality 99.9 %
Test CRC 53AE8718
Copy CRC 53AE8718
Track not present in AccurateRip database
Copy OK
Track 9
Filename F:\Flac Rips\09 - La Leyenda Continua.wav
Pre-gap length 0:00:02.00
Peak level 96.7 %
Extraction speed 6.6 X
Track quality 100.0 %
Test CRC 4F3D47BC
Copy CRC 4F3D47BC
Track not present in AccurateRip database
Copy OK
Track 10
Filename F:\Flac Rips\10 - A las Cumbres Subi.wav
Pre-gap length 0:00:02.00
Peak level 92.9 %
Extraction speed 6.0 X
Track quality 99.9 %
Test CRC CEF00493
Copy CRC CEF00493
Track not present in AccurateRip database
Copy OK
Track 11
Filename F:\Flac Rips\11 - Herencia Flamenca.wav
Pre-gap length 0:00:02.00
Peak level 93.9 %
Extraction speed 7.1 X
Track quality 100.0 %
Test CRC 71C36600
Copy CRC 71C36600
Track not present in AccurateRip database
Copy OK
Track 12
Filename F:\Flac Rips\12 - A los Valles Baje.wav
Pre-gap length 0:00:02.00
Peak level 95.4 %
Extraction speed 7.6 X
Track quality 100.0 %
Test CRC 1BFB5EE8
Copy CRC 1BFB5EE8
Track not present in AccurateRip database
Copy OK
None of the tracks are present in the AccurateRip database
No errors occurred
End of status report
==== Log checksum 44919D79245022DB46711D814D0DD55CE06C7D125FBBC98FEC15DD15E2801A94 ====
 
Содержание индексной карты (.CUE)
REM GENRE Flamenco-Jazz
REM DATE 2013
REM DISCID 880F400C
REM COMMENT "ExactAudioCopy v1.0b3"
PERFORMER "Jorge Pardo, Ernesto Hermoza, Juan Medrano Cotito"
TITLE "Puerta del Sol"
FILE "01 - El Aire de la Tierra.wav" WAVE
TRACK 01 AUDIO
TITLE "El Aire de la Tierra"
PERFORMER "Jorge Pardo, Ernesto Hermoza, Juan Medrano Cotito"
INDEX 01 00:00:00
TRACK 02 AUDIO
TITLE "Navegando Hacia las Indias"
PERFORMER "Jorge Pardo, Ernesto Hermoza, Juan Medrano Cotito"
INDEX 00 08:57:72
FILE "02 - Navegando Hacia las Indias.wav" WAVE
INDEX 01 00:00:00
TRACK 03 AUDIO
TITLE "Locos y Poetas"
PERFORMER "Jorge Pardo, Ernesto Hermoza, Juan Medrano Cotito"
INDEX 00 07:50:11
FILE "03 - Locos y Poetas.wav" WAVE
INDEX 01 00:00:00
FILE "04 - Ollita Vo a Baila.wav" WAVE
TRACK 04 AUDIO
TITLE "Ollita Vo a Baila"
PERFORMER "Jorge Pardo, Ernesto Hermoza, Juan Medrano Cotito"
INDEX 01 00:00:00
TRACK 05 AUDIO
TITLE "Meme Neguito"
PERFORMER "Jorge Pardo, Ernesto Hermoza, Juan Medrano Cotito"
INDEX 00 07:05:33
FILE "05 - Meme Neguito.wav" WAVE
INDEX 01 00:00:00
FILE "06 - Su Sueno.wav" WAVE
TRACK 06 AUDIO
TITLE "Su Sueno"
PERFORMER "Jorge Pardo, Ernesto Hermoza, Juan Medrano Cotito"
INDEX 01 00:00:00
TRACK 07 AUDIO
TITLE "Tiempo de Leyenda"
PERFORMER "Jorge Pardo, Ernesto Hermoza, Juan Medrano Cotito"
INDEX 00 05:14:70
FILE "07 - Tiempo de Leyenda.wav" WAVE
INDEX 01 00:00:00
FILE "08 - De Occidente a Oriente.wav" WAVE
TRACK 08 AUDIO
TITLE "De Occidente a Oriente"
PERFORMER "Jorge Pardo, Ernesto Hermoza, Juan Medrano Cotito"
INDEX 01 00:00:00
TRACK 09 AUDIO
TITLE "La Leyenda Continua"
PERFORMER "Jorge Pardo, Ernesto Hermoza, Juan Medrano Cotito"
INDEX 00 09:19:07
FILE "09 - La Leyenda Continua.wav" WAVE
INDEX 01 00:00:00
TRACK 10 AUDIO
TITLE "A las Cumbres Subi"
PERFORMER "Jorge Pardo, Ernesto Hermoza, Juan Medrano Cotito"
INDEX 00 03:39:63
FILE "10 - A las Cumbres Subi.wav" WAVE
INDEX 01 00:00:00
TRACK 11 AUDIO
TITLE "Herencia Flamenca"
PERFORMER "Jorge Pardo, Ernesto Hermoza, Juan Medrano Cotito"
INDEX 00 05:15:54
FILE "11 - Herencia Flamenca.wav" WAVE
INDEX 01 00:00:00
TRACK 12 AUDIO
TITLE "A los Valles Baje"
PERFORMER "Jorge Pardo, Ernesto Hermoza, Juan Medrano Cotito"
INDEX 00 03:46:69
FILE "12 - A los Valles Baje.wav" WAVE
INDEX 01 00:00:00
 
Состав
Jorge Pardo - sax, flute
Ernesto Hermoza - guitar, charango
Juan Medrano Cotito - peruvian drumbox
Omar Rojas - bass
11:28
264
Нет комментариев. Ваш будет первым!