Поиск

(Brazilian Jazz, Samba, Contemporary Jazz) Egberto Gismonti - No Caipira - 1978 (1993), FLAC (image+.cue), lossless

(Brazilian Jazz, Samba, Contemporary Jazz) Egberto Gismonti - No Caipira - 1978 (1993), FLAC (image+.cue), lossless
Треклист:
Egberto Gismonti - Nó Caipira
Жанр: Brazilian Jazz, Samba, Contemporary Jazz
Страна-производитель диска: Германия
Год издания: 1978 (1993)
Издатель (лейбл): Carmo
Номер по каталогу: 517 715-2
Аудиокодек: FLAC (*.flac)
Тип рипа: image+.cue
Битрейт аудио: lossless
Продолжительность: 61:26
Источник (релизер): rpt (hqshare)
Наличие сканов в содержимом раздачи: да
Треклист:
01. Saudações (3:16)
02. Nó Caipira & Zabumba (8:32)
03. Noca & Garrafas (0:53)
04. Pira & Bambuzal (1:54)
05. Palácio de Pinturas (7:45)
06. Maracatu, Sapo, Queimada & Grilo (3:28)
07. Frevo (3:25)
08. Esquenta Muié & Banda de Pífanos (2:44)
09. Frevo Rasgado (3:42)
10. Sertão Brasileiro (3:46)
11. Selva Amazônica (para Villa-Lobos) (5:48)
12. Uana Lua & Kalimbas (1:57)
13. Canção da Espera (3:16)
14. Dança das Sombras (11:00)
 
Лог создания рипа
Exact Audio Copy V1.0 beta 3 from 29. August 2011
EAC extraction logfile from 17. May 2013, 20:10
Egberto Gismonti / Nó Caipira
Used drive : ATAPI iHAS122 Adapter: 4 ID: 0
Read mode : Secure
Utilize accurate stream : Yes
Defeat audio cache : Yes
Make use of C2 pointers : No
Read offset correction : 6
Overread into Lead-In and Lead-Out : No
Fill up missing offset samples with silence : Yes
Delete leading and trailing silent blocks : No
Null samples used in CRC calculations : Yes
Used interface : Installed external ASPI interface
Used output format : Internal WAV Routines
Sample format : 44.100 Hz; 16 Bit; Stereo
TOC of the extracted CD
Track | Start | Length | Start sector | End sector
---------------------------------------------------------
1 | 0:00.00 | 3:16.32 | 0 | 14731
2 | 3:16.32 | 8:31.43 | 14732 | 53099
3 | 11:48.00 | 0:53.17 | 53100 | 57091
4 | 12:41.17 | 1:54.30 | 57092 | 65671
5 | 14:35.47 | 7:44.73 | 65672 | 100544
6 | 22:20.45 | 3:27.52 | 100545 | 116121
7 | 25:48.22 | 3:24.53 | 116122 | 131474
8 | 29:13.00 | 2:44.00 | 131475 | 143774
9 | 31:57.00 | 3:41.65 | 143775 | 160414
10 | 35:38.65 | 3:46.27 | 160415 | 177391
11 | 39:25.17 | 5:48.08 | 177392 | 203499
12 | 45:13.25 | 1:57.00 | 203500 | 212274
13 | 47:10.25 | 3:15.50 | 212275 | 226949
14 | 50:26.00 | 11:00.00 | 226950 | 276449
Range status and errors
Selected range
Filename K:\rEApEAt\Egberto Gismonti - No Caipira\Egberto Gismonti - No Caipira.wav
Peak level 100.0 %
Extraction speed 8.8 X
Range quality 100.0 %
Test CRC D3CB55DF
Copy CRC D3CB55DF
Copy OK
No errors occurred
AccurateRip summary
Track 1 cannot be verified as accurate (confidence 2) [C1A265A5], AccurateRip returned [208ECF74] (AR v2)
Track 2 cannot be verified as accurate (confidence 2) [7BEBF504], AccurateRip returned [CF3810B6] (AR v2)
Track 3 cannot be verified as accurate (confidence 2) [60EB81EC], AccurateRip returned [8F26C0E7] (AR v2)
Track 4 cannot be verified as accurate (confidence 2) [2DEB2FED], AccurateRip returned [B866AE99] (AR v2)
Track 5 cannot be verified as accurate (confidence 2) [28F22DCD], AccurateRip returned [B3A45CF8] (AR v2)
Track 6 cannot be verified as accurate (confidence 2) [302C590C], AccurateRip returned [0FA4156E] (AR v2)
Track 7 cannot be verified as accurate (confidence 2) [4F47B4F1], AccurateRip returned [D181A67C] (AR v2)
Track 8 cannot be verified as accurate (confidence 2) [BF48103C], AccurateRip returned [104FE155] (AR v2)
Track 9 cannot be verified as accurate (confidence 2) [05FAF516], AccurateRip returned [704373B3] (AR v2)
Track 10 cannot be verified as accurate (confidence 2) [CBD6B3C7], AccurateRip returned [1B6F783B] (AR v2)
Track 11 cannot be verified as accurate (confidence 2) [137676E6], AccurateRip returned [A577FB02] (AR v2)
Track 12 cannot be verified as accurate (confidence 2) [3DD604E9], AccurateRip returned [9D234752] (AR v2)
Track 13 cannot be verified as accurate (confidence 2) [B820D9B0], AccurateRip returned [9148E1E5] (AR v2)
Track 14 cannot be verified as accurate (confidence 2) [7ED21048], AccurateRip returned [8E38471F] (AR v2)
No tracks could be verified as accurate
You may have a different pressing from the one(s) in the database
End of status report
==== Log checksum E17EDEC90FF39B03614B0550BE73310AFE89212A0A3538CDB7CCC64491264ADC ====
 
Содержание индексной карты (.CUE)
REM GENRE Jazz
REM DATE 1978
REM DISCID C10E660E
REM COMMENT "ExactAudioCopy v1.0b3"
PERFORMER "Egberto Gismonti"
TITLE "Nó Caipira"
FILE "Egberto Gismonti - No Caipira.wav" WAVE
TRACK 01 AUDIO
TITLE "Saudações"
PERFORMER "Egberto Gismonti"
INDEX 01 00:00:00
TRACK 02 AUDIO
TITLE "Nó Caipira & Zabumba"
PERFORMER "Egberto Gismonti"
INDEX 01 03:16:32
TRACK 03 AUDIO
TITLE "Noca & Garrafas"
PERFORMER "Egberto Gismonti"
INDEX 01 11:48:00
TRACK 04 AUDIO
TITLE "Pira & Bambuzal"
PERFORMER "Egberto Gismonti"
INDEX 01 12:41:17
TRACK 05 AUDIO
TITLE "Palácio de Pinturas"
PERFORMER "Egberto Gismonti"
INDEX 01 14:35:47
TRACK 06 AUDIO
TITLE "Maracatú, Sapo, Queimada & Grilo"
PERFORMER "Egberto Gismonti"
INDEX 01 22:20:45
TRACK 07 AUDIO
TITLE "Frevo"
PERFORMER "Egberto Gismonti"
INDEX 01 25:48:22
TRACK 08 AUDIO
TITLE "Esquenta Muié & Banda de Pífanos"
PERFORMER "Egberto Gismonti"
INDEX 01 29:13:00
TRACK 09 AUDIO
TITLE "Frevo Rasgado"
PERFORMER "Egberto Gismonti"
INDEX 01 31:57:00
TRACK 10 AUDIO
TITLE "Sertão Brasileiro"
PERFORMER "Egberto Gismonti"
INDEX 01 35:38:65
TRACK 11 AUDIO
TITLE "Selva Amazônica (para Villa-Lobos)"
PERFORMER "Egberto Gismonti"
INDEX 01 39:25:17
TRACK 12 AUDIO
TITLE "Uana Lua & Kalimbas"
PERFORMER "Egberto Gismonti"
INDEX 01 45:13:25
TRACK 13 AUDIO
TITLE "Canção da Espera"
PERFORMER "Egberto Gismonti"
INDEX 01 47:10:25
TRACK 14 AUDIO
TITLE "Dança das Sombras"
PERFORMER "Egberto Gismonti"
INDEX 01 50:26:00
12:27
265
Нет комментариев. Ваш будет первым!