Поиск

(Vocal Jazz, World Fusion) Concha Buika - La Noche Mas Larga - 2013, FLAC (tracks+.cue), lossless

(Vocal Jazz, World Fusion) Concha Buika - La Noche Mas Larga - 2013, FLAC (tracks+.cue), lossless
Треклист:
♦ Concha Buika - La Noche Mas Larga ♦
Жанр: Vocal Jazz, World Fusion
Страна-производитель диска: EU
Год издания: 2013
Издатель (лейбл): Warner Music
Номер по каталогу: 2564646174
Аудиокодек: FLAC (*.flac)
Тип рипа: tracks+.cue
Битрейт аудио: lossless
Продолжительность: 00:56:44
Источник (релизер): jlgt
Наличие сканов в содержимом раздачи: да
Треклист:
01. Sueno Con Ella [06:51]
02. Siboney [04:45]
03. No Me Quitte Pas [04:20]
04. Yo Vengo a Ofrecer mi Corazon [03:57]
05. La Nave del Olvido [06:03]
06. La Noche Mas larga [03:54]
07. Don't Explain [04:01]
08. No Lo Se [03:40]
09. Santa Lucia [04:28]
10. Los Solos [04:02]
11. Como Era [05:18]
12. Throw It Away [05:21]
 
Лог создания рипа
Exact Audio Copy V1.0 beta 3 from 29. August 2011
EAC extraction logfile from 16. June 2013, 15:34
Buika / La Noche Mas Larga [Warner Music Spain 2564645174]
Used drive : PLEXTOR DVDR PX-L890SA Adapter: 2 ID: 1
Read mode : Secure
Utilize accurate stream : Yes
Defeat audio cache : Yes
Make use of C2 pointers : No
Read offset correction : 6
Overread into Lead-In and Lead-Out : No
Fill up missing offset samples with silence : Yes
Delete leading and trailing silent blocks : No
Null samples used in CRC calculations : Yes
Used interface : Native Win32 interface for Win NT & 2000
Gap handling : Appended to previous track
Used output format : User Defined Encoder
Selected bitrate : 256 kBit/s
Quality : High
Add ID3 tag : No
Command line compressor : C:\Program Files (x86)\Exact Audio Copy\FLAC\FLAC.EXE
Additional command line options : -8 -V -T "ARTIST=%artist%" -T "TITLE=%title%" -T "ALBUM=%albumtitle%" -T "DATE=%year%" -T "TRACKNUMBER=%tracknr%" -T "TOTALTRACKS=%numtracks%" -T "GENRE=%genre%" -T "ALBUMARTIST=%albumartist%" -T "ALBUM ARTIST=%albumartist%" -T "COMMENT=EAC Secure Mode, Test & Copy, AccurateRip, FLAC -8" %source%
TOC of the extracted CD
Track | Start | Length | Start sector | End sector
---------------------------------------------------------
1 | 0:00.00 | 6:51.17 | 0 | 30841
2 | 6:51.17 | 4:45.18 | 30842 | 52234
3 | 11:36.35 | 4:20.62 | 52235 | 71796
4 | 15:57.22 | 3:57.34 | 71797 | 89605
5 | 19:54.56 | 6:03.10 | 89606 | 116840
6 | 25:57.66 | 3:54.41 | 116841 | 134431
7 | 29:52.32 | 4:01.19 | 134432 | 152525
8 | 33:53.51 | 3:40.32 | 152526 | 169057
9 | 37:34.08 | 4:28.33 | 169058 | 189190
10 | 42:02.41 | 4:02.20 | 189191 | 207360
11 | 46:04.61 | 5:18.62 | 207361 | 231272
12 | 51:23.48 | 5:21.05 | 231273 | 255352
Track 1
Filename F:\Flac Rips\01 - Sueno Con Ella.wav
Pre-gap length 0:00:02.00
Peak level 99.4 %
Extraction speed 4.0 X
Track quality 100.0 %
Test CRC 4E6DEF1C
Copy CRC 4E6DEF1C
Track not present in AccurateRip database
Copy OK
Track 2
Filename F:\Flac Rips\02 - Siboney.wav
Pre-gap length 0:00:02.00
Peak level 99.5 %
Extraction speed 4.4 X
Track quality 100.0 %
Test CRC FDE8CB33
Copy CRC FDE8CB33
Track not present in AccurateRip database
Copy OK
Track 3
Filename F:\Flac Rips\03 - No Me Quitte Pas.wav
Pre-gap length 0:00:02.00
Peak level 99.9 %
Extraction speed 4.7 X
Track quality 100.0 %
Test CRC 2CAEC60A
Copy CRC 2CAEC60A
Track not present in AccurateRip database
Copy OK
Track 4
Filename F:\Flac Rips\04 - Yo Vengo a Ofrecer mi Corazon.wav
Pre-gap length 0:00:01.11
Peak level 99.8 %
Extraction speed 5.0 X
Track quality 100.0 %
Test CRC C3F9DE7D
Copy CRC C3F9DE7D
Track not present in AccurateRip database
Copy OK
Track 5
Filename F:\Flac Rips\05 - La Nave del Olvido.wav
Pre-gap length 0:00:02.00
Peak level 99.9 %
Extraction speed 5.6 X
Track quality 100.0 %
Test CRC 8A25A58B
Copy CRC 8A25A58B
Track not present in AccurateRip database
Copy OK
Track 6
Filename F:\Flac Rips\06 - La Noche Mas larga.wav
Pre-gap length 0:00:01.23
Peak level 99.3 %
Extraction speed 5.6 X
Track quality 100.0 %
Test CRC D24EFFEB
Copy CRC D24EFFEB
Track not present in AccurateRip database
Copy OK
Track 7
Filename F:\Flac Rips\07 - Don't Explain.wav
Pre-gap length 0:00:02.05
Peak level 99.8 %
Extraction speed 5.9 X
Track quality 100.0 %
Test CRC CB3A8AA1
Copy CRC CB3A8AA1
Track not present in AccurateRip database
Copy OK
Track 8
Filename F:\Flac Rips\08 - No Lo Se.wav
Pre-gap length 0:00:01.55
Peak level 99.1 %
Extraction speed 4.7 X
Track quality 99.9 %
Test CRC D1C08B53
Copy CRC D1C08B53
Track not present in AccurateRip database
Copy OK
Track 9
Filename F:\Flac Rips\09 - Santa Lucia.wav
Pre-gap length 0:00:01.01
Peak level 99.9 %
Extraction speed 6.4 X
Track quality 100.0 %
Test CRC BB09A935
Copy CRC BB09A935
Track not present in AccurateRip database
Copy OK
Track 10
Filename F:\Flac Rips\10 - Los Solos.wav
Pre-gap length 0:00:01.74
Peak level 99.2 %
Extraction speed 6.5 X
Track quality 100.0 %
Test CRC 4CC02A1C
Copy CRC 4CC02A1C
Track not present in AccurateRip database
Copy OK
Track 11
Filename F:\Flac Rips\11 - Como Era.wav
Pre-gap length 0:00:01.74
Peak level 99.4 %
Extraction speed 7.0 X
Track quality 100.0 %
Test CRC 10332953
Copy CRC 10332953
Track not present in AccurateRip database
Copy OK
Track 12
Filename F:\Flac Rips\12 - Throw It Away.wav
Pre-gap length 0:00:01.43
Peak level 99.5 %
Extraction speed 6.0 X
Track quality 99.9 %
Test CRC FE3F030D
Copy CRC FE3F030D
Track not present in AccurateRip database
Copy OK
None of the tracks are present in the AccurateRip database
No errors occurred
End of status report
==== Log checksum AB4735DFDB501F305B2BB8D0DD8123C012018202309FE491283F6E5C91E39EBF ====
 
Содержание индексной карты (.CUE)
REM GENRE Fusion
REM DATE 2013
REM DISCID BD0D4C0C
REM COMMENT "ExactAudioCopy v1.0b3"
PERFORMER "Buika"
TITLE "La Noche Mas Larga [Warner Music Spain 2564645174]"
FILE "01 - Sueno Con Ella.wav" WAVE
TRACK 01 AUDIO
TITLE "Sueno Con Ella"
PERFORMER "Buika"
FLAGS DCP
INDEX 01 00:00:00
TRACK 02 AUDIO
TITLE "Siboney"
PERFORMER "Buika"
FLAGS DCP
INDEX 00 06:49:17
FILE "02 - Siboney.wav" WAVE
INDEX 01 00:00:00
TRACK 03 AUDIO
TITLE "No Me Quitte Pas"
PERFORMER "Buika"
FLAGS DCP
INDEX 00 04:43:18
FILE "03 - No Me Quitte Pas.wav" WAVE
INDEX 01 00:00:00
TRACK 04 AUDIO
TITLE "Yo Vengo a Ofrecer mi Corazon"
PERFORMER "Buika"
FLAGS DCP
INDEX 00 04:19:51
FILE "04 - Yo Vengo a Ofrecer mi Corazon.wav" WAVE
INDEX 01 00:00:00
TRACK 05 AUDIO
TITLE "La Nave del Olvido"
PERFORMER "Buika"
FLAGS DCP
INDEX 00 03:55:34
FILE "05 - La Nave del Olvido.wav" WAVE
INDEX 01 00:00:00
TRACK 06 AUDIO
TITLE "La Noche Mas larga"
PERFORMER "Buika"
FLAGS DCP
INDEX 00 06:01:62
FILE "06 - La Noche Mas larga.wav" WAVE
INDEX 01 00:00:00
TRACK 07 AUDIO
TITLE "Don't Explain"
PERFORMER "Buika"
FLAGS DCP
INDEX 00 03:52:36
FILE "07 - Don't Explain.wav" WAVE
INDEX 01 00:00:00
TRACK 08 AUDIO
TITLE "No Lo Se"
PERFORMER "Buika"
FLAGS DCP
INDEX 00 03:59:39
FILE "08 - No Lo Se.wav" WAVE
INDEX 01 00:00:00
TRACK 09 AUDIO
TITLE "Santa Lucia"
PERFORMER "Buika"
FLAGS DCP
INDEX 00 03:39:31
FILE "09 - Santa Lucia.wav" WAVE
INDEX 01 00:00:00
TRACK 10 AUDIO
TITLE "Los Solos"
PERFORMER "Buika"
FLAGS DCP
INDEX 00 04:26:34
FILE "10 - Los Solos.wav" WAVE
INDEX 01 00:00:00
TRACK 11 AUDIO
TITLE "Como Era"
PERFORMER "Buika"
FLAGS DCP
INDEX 00 04:00:21
FILE "11 - Como Era.wav" WAVE
INDEX 01 00:00:00
TRACK 12 AUDIO
TITLE "Throw It Away"
PERFORMER "Buika"
FLAGS DCP
INDEX 00 05:17:19
FILE "12 - Throw It Away.wav" WAVE
INDEX 01 00:00:00
 
Состав
Concha Buika - vocals
Iván Melón Lewis - piano, keyboards, percussion
Ramón Porrina - percussion, background Vocals
John Benítez - bass
Alaín Pérez - electric bass
Juan José Suárez "El Paquete", Carlos de Motril - flamenco guitars
Pedrito Martínez, Israel Suárez "El Piraña" - percussion
Carlos Sarduy - trumpet
Dafnis Prieto - drums
Pedrito Martínez, Genara Cortés, Alicia Morales, Saray Muñoz - background vocals
Pat Metheny - guitar on track 8
12:28
284
Нет комментариев. Ваш будет первым!