Поиск

(World Fusion, Latin Jazz) [CD] Lalo Schifrin - The Bossa Nova & Latin Albums (Double Set) - 2015, FLAC (tracks+.cue), lossless

(World Fusion, Latin Jazz) [CD] Lalo Schifrin - The Bossa Nova & Latin Albums (Double Set) - 2015, FLAC (tracks+.cue), lossless
Треклист:
Lalo Schifrin - The Bossa Nova & Latin Albums (2CD)

Жанр: World Fusion, Latin Jazz
Носитель: CD
Год издания: 2015
Издатель (лейбл): Malanga Music
Номер по каталогу: MM828
Аудиокодек: FLAC (*.flac)
Тип рипа: tracks+.cue
Битрейт аудио: lossless
Продолжительность: 79:33 / 79:24
Rip by pepperbird
Наличие сканов в содержимом раздачи: да 
 
 
CD 1
Треклист:
01. The Snake Dance (3:23)
02. An Evening in Sao Paulo (2:44)
03. Desafinado (3:19)
04. Kush (6:13)
05. Rhythm-A-Ning (4:31)
06. Mount Olive (4:38)
07. Cubano (3:12)
08. Sphyros (4:03)
09. Boato (Bistro) (2:32)
10. Chora tua Tristeza (2:43)
11. Poema do Adeus (3:21)
12. Apito no Samba (2:53)
13. Chega de Saudade (5:22)
14. Bossa em Nova York (1:55)
15. O Amor e a Rosa (3:35)
16. O Menino desde o Morro (2:30)
17. Menina Feia (2:27)
18. Ouca (4:01)
19. Samba de uma Nota SO (3:50)
20. Patinho Fejo (aka Ugly Duckling) (3:07)
21. The Wave (2:45)
22. Insensatez (2:24)
23. You and Me (Voce e Eu) (1:49)
24. Lalo's Bossa Nova (Samba para Dos) (2:17)
 
 
Лог создания рипа
Exact Audio Copy V1.0 beta 3 from 29. August 2011
EAC extraction logfile from 26. October 2015, 8:22
Lalo Schifrin / The Bossa Nova & Latin Albums - CD 1
Used drive : PLEXTOR BD-R PX-B950SA Adapter: 3 ID: 0
Read mode : Secure
Utilize accurate stream : Yes
Defeat audio cache : Yes
Make use of C2 pointers : No
Read offset correction : 6
Overread into Lead-In and Lead-Out : No
Fill up missing offset samples with silence : Yes
Delete leading and trailing silent blocks : No
Null samples used in CRC calculations : Yes
Used interface : Native Win32 interface for Win NT & 2000
Gap handling : Appended to previous track
Used output format : User Defined Encoder
Selected bitrate : 1024 kBit/s
Quality : High
Add ID3 tag : No
Command line compressor : C:\Program Files (x86)\Exact Audio Copy\Flac\flac.exe
Additional command line options : -8 -V -T "ARTIST=%artist%" -T "TITLE=%title%" -T "ALBUM=%albumtitle%" -T "DATE=%year%" -T "TRACKNUMBER=%tracknr%" -T "TOTALTRACKS=%numtracks%" -T "GENRE=%genre%" -T "ALBUMARTIST=%albumartist%" -T "ALBUM ARTIST=%albumartist%" -T "COMMENT=EAC Secure Mode, Test & Copy, AccurateRip, FLAC -8" %source%
TOC of the extracted CD
Track | Start | Length | Start sector | End sector
---------------------------------------------------------
1 | 0:00.00 | 3:22.66 | 0 | 15215
2 | 3:22.66 | 2:43.63 | 15216 | 27503
3 | 6:06.54 | 3:19.07 | 27504 | 42435
4 | 9:25.61 | 6:13.26 | 42436 | 70436
5 | 15:39.12 | 4:30.65 | 70437 | 90751
6 | 20:10.02 | 4:37.74 | 90752 | 111600
7 | 24:48.01 | 3:12.11 | 111601 | 126011
8 | 28:00.12 | 4:02.45 | 126012 | 144206
9 | 32:02.57 | 2:32.10 | 144207 | 155616
10 | 34:34.67 | 2:42.55 | 155617 | 167821
11 | 37:17.47 | 3:21.36 | 167822 | 182932
12 | 40:39.08 | 2:53.07 | 182933 | 195914
13 | 43:32.15 | 5:21.40 | 195915 | 220029
14 | 48:53.55 | 1:55.29 | 220030 | 228683
15 | 50:49.09 | 3:34.65 | 228684 | 244798
16 | 54:23.74 | 2:29.66 | 244799 | 256039
17 | 56:53.65 | 2:27.08 | 256040 | 267072
18 | 59:20.73 | 4:00.39 | 267073 | 285111
19 | 63:21.37 | 3:49.42 | 285112 | 302328
20 | 67:11.04 | 3:06.66 | 302329 | 316344
21 | 70:17.70 | 2:44.54 | 316345 | 328698
22 | 73:02.49 | 2:23.40 | 328699 | 339463
23 | 75:26.14 | 1:49.10 | 339464 | 347648
24 | 77:15.24 | 2:17.26 | 347649 | 357949
Track 1
Filename Z:\#Torrents\Eigene\#EAC default\Lalo Schifrin - The Bossa Nova & Latin Albums (2015) [FLAC]\Disc 1of2\01 - The Snake Dance.wav
Pre-gap length 0:00:02.00
Peak level 78.8 %
Extraction speed 2.2 X
Track quality 100.0 %
Test CRC AF75B5B8
Copy CRC AF75B5B8
Accurately ripped (confidence 1) [08E553A6] (AR v1)
Copy OK
Track 2
Filename Z:\#Torrents\Eigene\#EAC default\Lalo Schifrin - The Bossa Nova & Latin Albums (2015) [FLAC]\Disc 1of2\02 - An Evening in Sao Paulo.wav
Pre-gap length 0:00:01.00
Peak level 63.3 %
Extraction speed 2.0 X
Track quality 100.0 %
Test CRC F7119C6F
Copy CRC F7119C6F
Accurately ripped (confidence 1) [7E1414A1] (AR v1)
Copy OK
Track 3
Filename Z:\#Torrents\Eigene\#EAC default\Lalo Schifrin - The Bossa Nova & Latin Albums (2015) [FLAC]\Disc 1of2\03 - Desafinado.wav
Pre-gap length 0:00:01.00
Peak level 73.8 %
Extraction speed 2.5 X
Track quality 100.0 %
Test CRC 1BFD9871
Copy CRC 1BFD9871
Accurately ripped (confidence 1) [C8EF8F4E] (AR v1)
Copy OK
Track 4
Filename Z:\#Torrents\Eigene\#EAC default\Lalo Schifrin - The Bossa Nova & Latin Albums (2015) [FLAC]\Disc 1of2\04 - Kush.wav
Pre-gap length 0:00:01.00
Peak level 75.5 %
Extraction speed 2.9 X
Track quality 100.0 %
Test CRC E1E01DBD
Copy CRC E1E01DBD
Accurately ripped (confidence 1) [D20B411D] (AR v1)
Copy OK
Track 5
Filename Z:\#Torrents\Eigene\#EAC default\Lalo Schifrin - The Bossa Nova & Latin Albums (2015) [FLAC]\Disc 1of2\05 - Rhythm-A-Ning.wav
Pre-gap length 0:00:01.00
Peak level 64.8 %
Extraction speed 3.0 X
Track quality 100.0 %
Test CRC 9379AB37
Copy CRC 9379AB37
Accurately ripped (confidence 1) [B71AE91C] (AR v1)
Copy OK
Track 6
Filename Z:\#Torrents\Eigene\#EAC default\Lalo Schifrin - The Bossa Nova & Latin Albums (2015) [FLAC]\Disc 1of2\06 - Mount Olive.wav
Pre-gap length 0:00:01.00
Peak level 76.4 %
Extraction speed 3.2 X
Track quality 100.0 %
Test CRC DEB03411
Copy CRC DEB03411
Accurately ripped (confidence 1) [D59176CC] (AR v1)
Copy OK
Track 7
Filename Z:\#Torrents\Eigene\#EAC default\Lalo Schifrin - The Bossa Nova & Latin Albums (2015) [FLAC]\Disc 1of2\07 - Cubano.wav
Pre-gap length 0:00:01.00
Peak level 80.9 %
Extraction speed 3.2 X
Track quality 100.0 %
Test CRC 6BE25796
Copy CRC 6BE25796
Accurately ripped (confidence 1) [7A6AC3E0] (AR v1)
Copy OK
Track 8
Filename Z:\#Torrents\Eigene\#EAC default\Lalo Schifrin - The Bossa Nova & Latin Albums (2015) [FLAC]\Disc 1of2\08 - Sphyros.wav
Pre-gap length 0:00:01.00
Peak level 81.3 %
Extraction speed 3.4 X
Track quality 100.0 %
Test CRC 05922C46
Copy CRC 05922C46
Accurately ripped (confidence 1) [1C3AEBB1] (AR v1)
Copy OK
Track 9
Filename Z:\#Torrents\Eigene\#EAC default\Lalo Schifrin - The Bossa Nova & Latin Albums (2015) [FLAC]\Disc 1of2\09 - Boato (Bistro).wav
Pre-gap length 0:00:01.00
Peak level 94.1 %
Extraction speed 3.3 X
Track quality 100.0 %
Test CRC 737DC6C2
Copy CRC 737DC6C2
Accurately ripped (confidence 1) [2B9332CF] (AR v1)
Copy OK
Track 10
Filename Z:\#Torrents\Eigene\#EAC default\Lalo Schifrin - The Bossa Nova & Latin Albums (2015) [FLAC]\Disc 1of2\10 - Chora tua Tristeza.wav
Pre-gap length 0:00:01.00
Peak level 93.8 %
Extraction speed 3.4 X
Track quality 100.0 %
Test CRC 6D6C5211
Copy CRC 6D6C5211
Accurately ripped (confidence 1) [F26B9074] (AR v1)
Copy OK
Track 11
Filename Z:\#Torrents\Eigene\#EAC default\Lalo Schifrin - The Bossa Nova & Latin Albums (2015) [FLAC]\Disc 1of2\11 - Poema do Adeus.wav
Pre-gap length 0:00:01.00
Peak level 94.3 %
Extraction speed 2.6 X
Track quality 99.9 %
Test CRC BF928A51
Copy CRC BF928A51
Accurately ripped (confidence 1) [3D14A299] (AR v1)
Copy OK
Track 12
Filename Z:\#Torrents\Eigene\#EAC default\Lalo Schifrin - The Bossa Nova & Latin Albums (2015) [FLAC]\Disc 1of2\12 - Apito no Samba.wav
Pre-gap length 0:00:01.00
Peak level 94.2 %
Extraction speed 3.6 X
Track quality 100.0 %
Test CRC ECFC5463
Copy CRC ECFC5463
Accurately ripped (confidence 1) [B7ED77D5] (AR v1)
Copy OK
Track 13
Filename Z:\#Torrents\Eigene\#EAC default\Lalo Schifrin - The Bossa Nova & Latin Albums (2015) [FLAC]\Disc 1of2\13 - Chega de Saudade.wav
Pre-gap length 0:00:01.00
Peak level 94.1 %
Extraction speed 4.1 X
Track quality 100.0 %
Test CRC DB83BA42
Copy CRC DB83BA42
Accurately ripped (confidence 1) [675B3947] (AR v1)
Copy OK
Track 14
Filename Z:\#Torrents\Eigene\#EAC default\Lalo Schifrin - The Bossa Nova & Latin Albums (2015) [FLAC]\Disc 1of2\14 - Bossa em Nova York.wav
Pre-gap length 0:00:01.00
Peak level 94.3 %
Extraction speed 3.5 X
Track quality 100.0 %
Test CRC 630D406B
Copy CRC 630D406B
Accurately ripped (confidence 1) [94CE4623] (AR v1)
Copy OK
Track 15
Filename Z:\#Torrents\Eigene\#EAC default\Lalo Schifrin - The Bossa Nova & Latin Albums (2015) [FLAC]\Disc 1of2\15 - O Amor e a Rosa.wav
Pre-gap length 0:00:01.00
Peak level 83.6 %
Extraction speed 4.0 X
Track quality 100.0 %
Test CRC 2CCBE65C
Copy CRC 2CCBE65C
Accurately ripped (confidence 1) [5EB108CF] (AR v1)
Copy OK
Track 16
Filename Z:\#Torrents\Eigene\#EAC default\Lalo Schifrin - The Bossa Nova & Latin Albums (2015) [FLAC]\Disc 1of2\16 - O Menino desde o Morro.wav
Pre-gap length 0:00:01.00
Peak level 88.7 %
Extraction speed 3.9 X
Track quality 100.0 %
Test CRC 76AAD343
Copy CRC 76AAD343
Accurately ripped (confidence 1) [D3F09A4B] (AR v1)
Copy OK
Track 17
Filename Z:\#Torrents\Eigene\#EAC default\Lalo Schifrin - The Bossa Nova & Latin Albums (2015) [FLAC]\Disc 1of2\17 - Menina Feia.wav
Pre-gap length 0:00:01.00
Peak level 88.7 %
Extraction speed 3.9 X
Track quality 100.0 %
Test CRC FB34DD64
Copy CRC FB34DD64
Accurately ripped (confidence 1) [49DC084D] (AR v1)
Copy OK
Track 18
Filename Z:\#Torrents\Eigene\#EAC default\Lalo Schifrin - The Bossa Nova & Latin Albums (2015) [FLAC]\Disc 1of2\18 - Ouca.wav
Pre-gap length 0:00:01.00
Peak level 94.2 %
Extraction speed 4.3 X
Track quality 100.0 %
Test CRC 824DA968
Copy CRC 824DA968
Accurately ripped (confidence 1) [4397F78E] (AR v1)
Copy OK
Track 19
Filename Z:\#Torrents\Eigene\#EAC default\Lalo Schifrin - The Bossa Nova & Latin Albums (2015) [FLAC]\Disc 1of2\19 - Samba de uma Nota SO.wav
Pre-gap length 0:00:01.00
Peak level 89.5 %
Extraction speed 4.4 X
Track quality 100.0 %
Test CRC FBB4BA56
Copy CRC FBB4BA56
Accurately ripped (confidence 1) [3F30BC13] (AR v1)
Copy OK
Track 20
Filename Z:\#Torrents\Eigene\#EAC default\Lalo Schifrin - The Bossa Nova & Latin Albums (2015) [FLAC]\Disc 1of2\20 - Patinho Fejo (aka Ugly Duckling).wav
Pre-gap length 0:00:01.00
Peak level 93.7 %
Extraction speed 3.0 X
Track quality 99.9 %
Test CRC 471ECCA5
Copy CRC 471ECCA5
Accurately ripped (confidence 1) [9AB47F3B] (AR v1)
Copy OK
Track 21
Filename Z:\#Torrents\Eigene\#EAC default\Lalo Schifrin - The Bossa Nova & Latin Albums (2015) [FLAC]\Disc 1of2\21 - The Wave.wav
Pre-gap length 0:00:01.00
Peak level 100.0 %
Extraction speed 4.4 X
Track quality 100.0 %
Test CRC 4029901B
Copy CRC 4029901B
Accurately ripped (confidence 1) [201E2E91] (AR v1)
Copy OK
Track 22
Filename Z:\#Torrents\Eigene\#EAC default\Lalo Schifrin - The Bossa Nova & Latin Albums (2015) [FLAC]\Disc 1of2\22 - Insensatez.wav
Pre-gap length 0:00:01.00
Peak level 98.8 %
Extraction speed 4.3 X
Track quality 100.0 %
Test CRC 7F60E929
Copy CRC 7F60E929
Accurately ripped (confidence 1) [49902BB8] (AR v1)
Copy OK
Track 23
Filename Z:\#Torrents\Eigene\#EAC default\Lalo Schifrin - The Bossa Nova & Latin Albums (2015) [FLAC]\Disc 1of2\23 - You and Me (Voce e Eu).wav
Pre-gap length 0:00:01.00
Peak level 100.0 %
Extraction speed 4.1 X
Track quality 100.0 %
Test CRC 22F7210B
Copy CRC 22F7210B
Accurately ripped (confidence 1) [5646C101] (AR v1)
Copy OK
Track 24
Filename Z:\#Torrents\Eigene\#EAC default\Lalo Schifrin - The Bossa Nova & Latin Albums (2015) [FLAC]\Disc 1of2\24 - Lalo's Bossa Nova (Samba para Dos).wav
Pre-gap length 0:00:01.00
Peak level 100.0 %
Extraction speed 4.4 X
Track quality 100.0 %
Test CRC B2D50867
Copy CRC B2D50867
Accurately ripped (confidence 1) [B3325ACF] (AR v1)
Copy OK
All tracks accurately ripped
No errors occurred
End of status report
---- CUETools DB Plugin V2.1.3
[CTDB TOCID: FHqrzD1qLMMPI.A9q8VZlN8VQQg-] found, Submit result: already submitted
[df562f60] (1/1) Accurately ripped
==== Log checksum 7B7C1397E7C88200B79F8F0A6BF87E2F31E4269697B579A15A70CD7F6E09F728 ====
 
Содержание индексной карты (.CUE)
REM GENRE Jazz
REM DATE 2015
REM DISCID 5112A418
REM COMMENT "ExactAudioCopy v1.0b3"
PERFORMER "Lalo Schifrin"
TITLE "The Bossa Nova & Latin Albums - CD 1"
FILE "01 - The Snake Dance.wav" WAVE
TRACK 01 AUDIO
TITLE "The Snake Dance"
PERFORMER "Lalo Schifrin"
FLAGS DCP
INDEX 01 00:00:00
TRACK 02 AUDIO
TITLE "An Evening in Sao Paulo"
PERFORMER "Lalo Schifrin"
FLAGS DCP
INDEX 00 03:21:66
FILE "02 - An Evening in Sao Paulo.wav" WAVE
INDEX 01 00:00:00
TRACK 03 AUDIO
TITLE "Desafinado"
PERFORMER "Lalo Schifrin"
FLAGS DCP
INDEX 00 02:42:63
FILE "03 - Desafinado.wav" WAVE
INDEX 01 00:00:00
TRACK 04 AUDIO
TITLE "Kush"
PERFORMER "Lalo Schifrin"
FLAGS DCP
INDEX 00 03:18:07
FILE "04 - Kush.wav" WAVE
INDEX 01 00:00:00
TRACK 05 AUDIO
TITLE "Rhythm-A-Ning"
PERFORMER "Lalo Schifrin"
FLAGS DCP
INDEX 00 06:12:26
FILE "05 - Rhythm-A-Ning.wav" WAVE
INDEX 01 00:00:00
TRACK 06 AUDIO
TITLE "Mount Olive"
PERFORMER "Lalo Schifrin"
FLAGS DCP
INDEX 00 04:29:65
FILE "06 - Mount Olive.wav" WAVE
INDEX 01 00:00:00
TRACK 07 AUDIO
TITLE "Cubano"
PERFORMER "Lalo Schifrin"
FLAGS DCP
INDEX 00 04:36:74
FILE "07 - Cubano.wav" WAVE
INDEX 01 00:00:00
TRACK 08 AUDIO
TITLE "Sphyros"
PERFORMER "Lalo Schifrin"
FLAGS DCP
INDEX 00 03:11:11
FILE "08 - Sphyros.wav" WAVE
INDEX 01 00:00:00
TRACK 09 AUDIO
TITLE "Boato (Bistro)"
PERFORMER "Lalo Schifrin"
FLAGS DCP
INDEX 00 04:01:45
FILE "09 - Boato (Bistro).wav" WAVE
INDEX 01 00:00:00
TRACK 10 AUDIO
TITLE "Chora tua Tristeza"
PERFORMER "Lalo Schifrin"
FLAGS DCP
INDEX 00 02:31:10
FILE "10 - Chora tua Tristeza.wav" WAVE
INDEX 01 00:00:00
TRACK 11 AUDIO
TITLE "Poema do Adeus"
PERFORMER "Lalo Schifrin"
FLAGS DCP
INDEX 00 02:41:55
FILE "11 - Poema do Adeus.wav" WAVE
INDEX 01 00:00:00
TRACK 12 AUDIO
TITLE "Apito no Samba"
PERFORMER "Lalo Schifrin"
FLAGS DCP
INDEX 00 03:20:36
FILE "12 - Apito no Samba.wav" WAVE
INDEX 01 00:00:00
TRACK 13 AUDIO
TITLE "Chega de Saudade"
PERFORMER "Lalo Schifrin"
FLAGS DCP
INDEX 00 02:52:07
FILE "13 - Chega de Saudade.wav" WAVE
INDEX 01 00:00:00
TRACK 14 AUDIO
TITLE "Bossa em Nova York"
PERFORMER "Lalo Schifrin"
FLAGS DCP
INDEX 00 05:20:40
FILE "14 - Bossa em Nova York.wav" WAVE
INDEX 01 00:00:00
TRACK 15 AUDIO
TITLE "O Amor e a Rosa"
PERFORMER "Lalo Schifrin"
FLAGS DCP
INDEX 00 01:54:29
FILE "15 - O Amor e a Rosa.wav" WAVE
INDEX 01 00:00:00
TRACK 16 AUDIO
TITLE "O Menino desde o Morro"
PERFORMER "Lalo Schifrin"
FLAGS DCP
INDEX 00 03:33:65
FILE "16 - O Menino desde o Morro.wav" WAVE
INDEX 01 00:00:00
TRACK 17 AUDIO
TITLE "Menina Feia"
PERFORMER "Lalo Schifrin"
FLAGS DCP
INDEX 00 02:28:66
FILE "17 - Menina Feia.wav" WAVE
INDEX 01 00:00:00
TRACK 18 AUDIO
TITLE "Ouca"
PERFORMER "Lalo Schifrin"
FLAGS DCP
INDEX 00 02:26:08
FILE "18 - Ouca.wav" WAVE
INDEX 01 00:00:00
TRACK 19 AUDIO
TITLE "Samba de uma Nota SO"
PERFORMER "Lalo Schifrin"
FLAGS DCP
INDEX 00 03:59:39
FILE "19 - Samba de uma Nota SO.wav" WAVE
INDEX 01 00:00:00
TRACK 20 AUDIO
TITLE "Patinho Fejo (aka Ugly Duckling)"
PERFORMER "Lalo Schifrin"
FLAGS DCP
INDEX 00 03:48:42
FILE "20 - Patinho Fejo (aka Ugly Duckling).wav" WAVE
INDEX 01 00:00:00
TRACK 21 AUDIO
TITLE "The Wave"
PERFORMER "Lalo Schifrin"
FLAGS DCP
INDEX 00 03:05:66
FILE "21 - The Wave.wav" WAVE
INDEX 01 00:00:00
TRACK 22 AUDIO
TITLE "Insensatez"
PERFORMER "Lalo Schifrin"
FLAGS DCP
INDEX 00 02:43:54
FILE "22 - Insensatez.wav" WAVE
INDEX 01 00:00:00
TRACK 23 AUDIO
TITLE "You and Me (Voce e Eu)"
PERFORMER "Lalo Schifrin"
FLAGS DCP
INDEX 00 02:22:40
FILE "23 - You and Me (Voce e Eu).wav" WAVE
INDEX 01 00:00:00
TRACK 24 AUDIO
TITLE "Lalo's Bossa Nova (Samba para Dos)"
PERFORMER "Lalo Schifrin"
FLAGS DCP
INDEX 00 01:48:10
FILE "24 - Lalo's Bossa Nova (Samba para Dos).wav" WAVE
INDEX 01 00:00:00
 
CD 2
Треклист:
01. Silvia (3:13)
02. Murmurio (2:04)
03. Maria (2:32)
04. Rapaz de Bem (2:37)
05. Samba do Perroquet (Parrot Samba) (2:06)
06. Rio after Dark (2:36)
07. Time for Love (2:28)
08. (I'm Looking over a) Four Leaf Clover (1:53)
09. Frenesi (3:21)
10. The Breeze and I (Andalucia) (2:50)
11. Capricho Espanol (3:23)
12. My Shawl (2:47)
13. Caravan (3:15)
14. Malaguena (2:13)
15. Cha Cha Cha Flamenco (2:55)
16. Warsaw Concierto (2:03)
17. Hulablues (3:11)
18. Jungle Fantasy (2:34)
19. All the Things You Are (3:17)
20. El Cumbanchero (2:37)
21. Moulin Rouge (3:29)
22. Les Oignons (2:44)
23. Fascination (3:45)
24. Cabello Rojo (3:03)
25. Mon Homme (3:36)
26. Mambop (3:00)
27. Pigalle (3:06)
28. Serenade Mediterraneenne (bolero) (2:47)
 
 
Лог создания рипа
Exact Audio Copy V1.0 beta 3 from 29. August 2011
EAC extraction logfile from 26. October 2015, 9:22
Lalo Schifrin / The Bossa Nova & Latin Albums - CD 2
Used drive : PLEXTOR BD-R PX-B950SA Adapter: 3 ID: 0
Read mode : Secure
Utilize accurate stream : Yes
Defeat audio cache : Yes
Make use of C2 pointers : No
Read offset correction : 6
Overread into Lead-In and Lead-Out : No
Fill up missing offset samples with silence : Yes
Delete leading and trailing silent blocks : No
Null samples used in CRC calculations : Yes
Used interface : Native Win32 interface for Win NT & 2000
Gap handling : Appended to previous track
Used output format : User Defined Encoder
Selected bitrate : 1024 kBit/s
Quality : High
Add ID3 tag : No
Command line compressor : C:\Program Files (x86)\Exact Audio Copy\Flac\flac.exe
Additional command line options : -8 -V -T "ARTIST=%artist%" -T "TITLE=%title%" -T "ALBUM=%albumtitle%" -T "DATE=%year%" -T "TRACKNUMBER=%tracknr%" -T "TOTALTRACKS=%numtracks%" -T "GENRE=%genre%" -T "ALBUMARTIST=%albumartist%" -T "ALBUM ARTIST=%albumartist%" -T "COMMENT=EAC Secure Mode, Test & Copy, AccurateRip, FLAC -8" %source%
TOC of the extracted CD
Track | Start | Length | Start sector | End sector
---------------------------------------------------------
1 | 0:00.00 | 3:13.17 | 0 | 14491
2 | 3:13.17 | 2:03.41 | 14492 | 23757
3 | 5:16.58 | 2:31.56 | 23758 | 35138
4 | 7:48.39 | 2:36.72 | 35139 | 46910
5 | 10:25.36 | 2:06.12 | 46911 | 56372
6 | 12:31.48 | 2:35.41 | 56373 | 68038
7 | 15:07.14 | 2:28.18 | 68039 | 79156
8 | 17:35.32 | 1:52.70 | 79157 | 87626
9 | 19:28.27 | 3:20.54 | 87627 | 102680
10 | 22:49.06 | 2:49.69 | 102681 | 115424
11 | 25:39.00 | 3:22.60 | 115425 | 130634
12 | 29:01.60 | 2:46.57 | 130635 | 143141
13 | 31:48.42 | 3:14.38 | 143142 | 157729
14 | 35:03.05 | 2:12.59 | 157730 | 167688
15 | 37:15.64 | 2:54.59 | 167689 | 180797
16 | 40:10.48 | 2:03.15 | 180798 | 190037
17 | 42:13.63 | 3:11.19 | 190038 | 204381
18 | 45:25.07 | 2:34.28 | 204382 | 215959
19 | 47:59.35 | 3:16.70 | 215960 | 230729
20 | 51:16.30 | 2:36.64 | 230730 | 242493
21 | 53:53.19 | 3:29.10 | 242494 | 258178
22 | 57:22.29 | 2:44.14 | 258179 | 270492
23 | 60:06.43 | 3:44.50 | 270493 | 287342
24 | 63:51.18 | 3:02.55 | 287343 | 301047
25 | 66:53.73 | 3:36.11 | 301048 | 317258
26 | 70:30.09 | 3:00.28 | 317259 | 330786
27 | 73:30.37 | 3:06.16 | 330787 | 344752
28 | 76:36.53 | 2:47.33 | 344753 | 357310
Track 1
Filename Z:\#Torrents\Eigene\#EAC default\Lalo Schifrin - The Bossa Nova & Latin Albums (2015) [FLAC]\Disc 2of2\01 - Silvia.wav
Pre-gap length 0:00:02.00
Peak level 93.4 %
Extraction speed 3.8 X
Track quality 99.9 %
Test CRC E6D89BD9
Copy CRC E6D89BD9
Accurately ripped (confidence 1) [D185E0EA] (AR v1)
Copy OK
Track 2
Filename Z:\#Torrents\Eigene\#EAC default\Lalo Schifrin - The Bossa Nova & Latin Albums (2015) [FLAC]\Disc 2of2\02 - Murmurio.wav
Pre-gap length 0:00:02.00
Peak level 100.0 %
Extraction speed 4.6 X
Track quality 100.0 %
Test CRC D5E497AC
Copy CRC D5E497AC
Accurately ripped (confidence 1) [464C5014] (AR v1)
Copy OK
Track 3
Filename Z:\#Torrents\Eigene\#EAC default\Lalo Schifrin - The Bossa Nova & Latin Albums (2015) [FLAC]\Disc 2of2\03 - Maria.wav
Pre-gap length 0:00:02.00
Peak level 100.0 %
Extraction speed 3.9 X
Track quality 99.9 %
Test CRC 3E9F75CC
Copy CRC 3E9F75CC
Accurately ripped (confidence 1) [6F46FE01] (AR v1)
Copy OK
Track 4
Filename Z:\#Torrents\Eigene\#EAC default\Lalo Schifrin - The Bossa Nova & Latin Albums (2015) [FLAC]\Disc 2of2\04 - Rapaz de Bem.wav
Pre-gap length 0:00:02.00
Peak level 100.0 %
Extraction speed 5.3 X
Track quality 100.0 %
Test CRC 1069B5AE
Copy CRC 1069B5AE
Accurately ripped (confidence 1) [DAB27F5C] (AR v1)
Copy OK
Track 5
Filename Z:\#Torrents\Eigene\#EAC default\Lalo Schifrin - The Bossa Nova & Latin Albums (2015) [FLAC]\Disc 2of2\05 - Samba do Perroquet (Parrot Samba).wav
Pre-gap length 0:00:02.00
Peak level 100.0 %
Extraction speed 3.9 X
Track quality 99.9 %
Test CRC 4E4F5BC4
Copy CRC 4E4F5BC4
Accurately ripped (confidence 1) [7C2AD242] (AR v1)
Copy OK
Track 6
Filename Z:\#Torrents\Eigene\#EAC default\Lalo Schifrin - The Bossa Nova & Latin Albums (2015) [FLAC]\Disc 2of2\06 - Rio after Dark.wav
Pre-gap length 0:00:02.00
Peak level 100.0 %
Extraction speed 5.7 X
Track quality 100.0 %
Test CRC 49A8EC0F
Copy CRC 49A8EC0F
Accurately ripped (confidence 1) [5247C41C] (AR v1)
Copy OK
Track 7
Filename Z:\#Torrents\Eigene\#EAC default\Lalo Schifrin - The Bossa Nova & Latin Albums (2015) [FLAC]\Disc 2of2\07 - Time for Love.wav
Pre-gap length 0:00:02.00
Peak level 89.8 %
Extraction speed 5.9 X
Track quality 100.0 %
Test CRC 0582406A
Copy CRC 0582406A
Accurately ripped (confidence 1) [655723A2] (AR v1)
Copy OK
Track 8
Filename Z:\#Torrents\Eigene\#EAC default\Lalo Schifrin - The Bossa Nova & Latin Albums (2015) [FLAC]\Disc 2of2\08 - (I'm Looking over a) Four Leaf Clover.wav
Pre-gap length 0:00:02.00
Peak level 100.0 %
Extraction speed 5.7 X
Track quality 100.0 %
Test CRC 28FD8B51
Copy CRC 28FD8B51
Accurately ripped (confidence 1) [E9F7BF8B] (AR v1)
Copy OK
Track 9
Filename Z:\#Torrents\Eigene\#EAC default\Lalo Schifrin - The Bossa Nova & Latin Albums (2015) [FLAC]\Disc 2of2\09 - Frenesi.wav
Pre-gap length 0:00:02.00
Peak level 98.5 %
Extraction speed 6.6 X
Track quality 100.0 %
Test CRC 82389957
Copy CRC 82389957
Accurately ripped (confidence 1) [4B71DE0C] (AR v1)
Copy OK
Track 10
Filename Z:\#Torrents\Eigene\#EAC default\Lalo Schifrin - The Bossa Nova & Latin Albums (2015) [FLAC]\Disc 2of2\10 - The Breeze and I (Andalucia).wav
Pre-gap length 0:00:02.00
Peak level 86.1 %
Extraction speed 6.6 X
Track quality 100.0 %
Test CRC D0DC4620
Copy CRC D0DC4620
Accurately ripped (confidence 1) [CC79F0D6] (AR v1)
Copy OK
Track 11
Filename Z:\#Torrents\Eigene\#EAC default\Lalo Schifrin - The Bossa Nova & Latin Albums (2015) [FLAC]\Disc 2of2\11 - Capricho Espanol.wav
Pre-gap length 0:00:02.00
Peak level 94.4 %
Extraction speed 7.0 X
Track quality 100.0 %
Test CRC 8EED058F
Copy CRC 8EED058F
Accurately ripped (confidence 1) [5DDC0569] (AR v1)
Copy OK
Track 12
Filename Z:\#Torrents\Eigene\#EAC default\Lalo Schifrin - The Bossa Nova & Latin Albums (2015) [FLAC]\Disc 2of2\12 - My Shawl.wav
Pre-gap length 0:00:02.00
Peak level 90.4 %
Extraction speed 7.0 X
Track quality 100.0 %
Test CRC B2F30271
Copy CRC B2F30271
Accurately ripped (confidence 1) [4C1ACFBA] (AR v1)
Copy OK
Track 13
Filename Z:\#Torrents\Eigene\#EAC default\Lalo Schifrin - The Bossa Nova & Latin Albums (2015) [FLAC]\Disc 2of2\13 - Caravan.wav
Pre-gap length 0:00:02.00
Peak level 90.6 %
Extraction speed 5.9 X
Track quality 99.9 %
Test CRC 46A9F5CC
Copy CRC 46A9F5CC
Accurately ripped (confidence 1) [9A93040D] (AR v1)
Copy OK
Track 14
Filename Z:\#Torrents\Eigene\#EAC default\Lalo Schifrin - The Bossa Nova & Latin Albums (2015) [FLAC]\Disc 2of2\14 - Malaguena.wav
Pre-gap length 0:00:02.00
Peak level 86.3 %
Extraction speed 5.2 X
Track quality 99.9 %
Test CRC 08DEF13C
Copy CRC 08DEF13C
Accurately ripped (confidence 1) [62E4253E] (AR v1)
Copy OK
Track 15
Filename Z:\#Torrents\Eigene\#EAC default\Lalo Schifrin - The Bossa Nova & Latin Albums (2015) [FLAC]\Disc 2of2\15 - Cha Cha Cha Flamenco.wav
Pre-gap length 0:00:02.00
Peak level 91.2 %
Extraction speed 7.6 X
Track quality 100.0 %
Test CRC 6412D128
Copy CRC 6412D128
Accurately ripped (confidence 1) [EE6A8439] (AR v1)
Copy OK
Track 16
Filename Z:\#Torrents\Eigene\#EAC default\Lalo Schifrin - The Bossa Nova & Latin Albums (2015) [FLAC]\Disc 2of2\16 - Warsaw Concierto.wav
Pre-gap length 0:00:02.00
Peak level 100.0 %
Extraction speed 7.2 X
Track quality 100.0 %
Test CRC A0065FE1
Copy CRC A0065FE1
Accurately ripped (confidence 1) [AE4F73BB] (AR v1)
Copy OK
Track 17
Filename Z:\#Torrents\Eigene\#EAC default\Lalo Schifrin - The Bossa Nova & Latin Albums (2015) [FLAC]\Disc 2of2\17 - Hulablues.wav
Pre-gap length 0:00:02.00
Peak level 97.0 %
Extraction speed 6.4 X
Track quality 99.9 %
Test CRC 534E4C22
Copy CRC 534E4C22
Accurately ripped (confidence 1) [180EE76E] (AR v1)
Copy OK
Track 18
Filename Z:\#Torrents\Eigene\#EAC default\Lalo Schifrin - The Bossa Nova & Latin Albums (2015) [FLAC]\Disc 2of2\18 - Jungle Fantasy.wav
Pre-gap length 0:00:02.00
Peak level 99.1 %
Extraction speed 6.0 X
Track quality 99.9 %
Test CRC 9A7DA2FF
Copy CRC 9A7DA2FF
Accurately ripped (confidence 1) [E31EE89A] (AR v1)
Copy OK
Track 19
Filename Z:\#Torrents\Eigene\#EAC default\Lalo Schifrin - The Bossa Nova & Latin Albums (2015) [FLAC]\Disc 2of2\19 - All the Things You Are.wav
Pre-gap length 0:00:02.00
Peak level 100.0 %
Extraction speed 8.5 X
Track quality 100.0 %
Test CRC B6DC82E5
Copy CRC B6DC82E5
Accurately ripped (confidence 1) [F08B3321] (AR v1)
Copy OK
Track 20
Filename Z:\#Torrents\Eigene\#EAC default\Lalo Schifrin - The Bossa Nova & Latin Albums (2015) [FLAC]\Disc 2of2\20 - El Cumbanchero.wav
Pre-gap length 0:00:02.00
Peak level 100.0 %
Extraction speed 8.3 X
Track quality 100.0 %
Test CRC E93EA1CD
Copy CRC E93EA1CD
Accurately ripped (confidence 1) [83AA6998] (AR v1)
Copy OK
Track 21
Filename Z:\#Torrents\Eigene\#EAC default\Lalo Schifrin - The Bossa Nova & Latin Albums (2015) [FLAC]\Disc 2of2\21 - Moulin Rouge.wav
Pre-gap length 0:00:02.00
Peak level 98.8 %
Extraction speed 7.1 X
Track quality 99.9 %
Test CRC 540B3B21
Copy CRC 540B3B21
Accurately ripped (confidence 1) [ADA21168] (AR v1)
Copy OK
Track 22
Filename Z:\#Torrents\Eigene\#EAC default\Lalo Schifrin - The Bossa Nova & Latin Albums (2015) [FLAC]\Disc 2of2\22 - Les Oignons.wav
Pre-gap length 0:00:02.00
Peak level 98.8 %
Extraction speed 8.7 X
Track quality 100.0 %
Test CRC 3E868C9D
Copy CRC 3E868C9D
Accurately ripped (confidence 1) [1FD2C3DF] (AR v1)
Copy OK
Track 23
Filename Z:\#Torrents\Eigene\#EAC default\Lalo Schifrin - The Bossa Nova & Latin Albums (2015) [FLAC]\Disc 2of2\23 - Fascination.wav
Pre-gap length 0:00:02.00
Peak level 98.8 %
Extraction speed 9.3 X
Track quality 100.0 %
Test CRC 341CAF0D
Copy CRC 341CAF0D
Accurately ripped (confidence 1) [E3032B0F] (AR v1)
Copy OK
Track 24
Filename Z:\#Torrents\Eigene\#EAC default\Lalo Schifrin - The Bossa Nova & Latin Albums (2015) [FLAC]\Disc 2of2\24 - Cabello Rojo.wav
Pre-gap length 0:00:02.00
Peak level 98.8 %
Extraction speed 9.2 X
Track quality 100.0 %
Test CRC DEEE579F
Copy CRC DEEE579F
Accurately ripped (confidence 1) [5F4C5855] (AR v1)
Copy OK
Track 25
Filename Z:\#Torrents\Eigene\#EAC default\Lalo Schifrin - The Bossa Nova & Latin Albums (2015) [FLAC]\Disc 2of2\25 - Mon Homme.wav
Pre-gap length 0:00:02.00
Peak level 98.8 %
Extraction speed 7.7 X
Track quality 99.9 %
Test CRC 3F3807BF
Copy CRC 3F3807BF
Accurately ripped (confidence 1) [45151DF3] (AR v1)
Copy OK
Track 26
Filename Z:\#Torrents\Eigene\#EAC default\Lalo Schifrin - The Bossa Nova & Latin Albums (2015) [FLAC]\Disc 2of2\26 - Mambop.wav
Pre-gap length 0:00:02.00
Peak level 98.8 %
Extraction speed 9.5 X
Track quality 100.0 %
Test CRC B151D323
Copy CRC B151D323
Accurately ripped (confidence 1) [6D857A6E] (AR v1)
Copy OK
Track 27
Filename Z:\#Torrents\Eigene\#EAC default\Lalo Schifrin - The Bossa Nova & Latin Albums (2015) [FLAC]\Disc 2of2\27 - Pigalle.wav
Pre-gap length 0:00:02.00
Peak level 98.8 %
Extraction speed 9.8 X
Track quality 100.0 %
Test CRC 24364AB5
Copy CRC 24364AB5
Accurately ripped (confidence 1) [CE7341B1] (AR v1)
Copy OK
Track 28
Filename Z:\#Torrents\Eigene\#EAC default\Lalo Schifrin - The Bossa Nova & Latin Albums (2015) [FLAC]\Disc 2of2\28 - Serenade Mediterraneenne (bolero).wav
Pre-gap length 0:00:02.00
Peak level 98.8 %
Extraction speed 7.5 X
Track quality 99.9 %
Test CRC 3CE07B47
Copy CRC 3CE07B47
Accurately ripped (confidence 1) [943BF186] (AR v1)
Copy OK
All tracks accurately ripped
No errors occurred
End of status report
---- CUETools DB Plugin V2.1.3
[CTDB TOCID: ctR9tTK6hzvFEdxf1KK9wXYWIH0-] disk not present in database, Submit result: ctR9tTK6hzvFEdxf1KK9wXYWIH0- has been uploaded
==== Log checksum FC5B197A25E4D86A2C25ECD804B7FD781313440F625BC9E5D981E15B5854B432 ====
 
Содержание индексной карты (.CUE)
REM GENRE Jazz
REM DATE 2015
REM DISCID 7D129C1C
REM COMMENT "ExactAudioCopy v1.0b3"
PERFORMER "Lalo Schifrin"
TITLE "The Bossa Nova & Latin Albums - CD 2"
FILE "01 - Silvia.wav" WAVE
TRACK 01 AUDIO
TITLE "Silvia"
PERFORMER "Lalo Schifrin"
FLAGS DCP
INDEX 01 00:00:00
TRACK 02 AUDIO
TITLE "Murmurio"
PERFORMER "Lalo Schifrin"
FLAGS DCP
INDEX 00 03:11:17
FILE "02 - Murmurio.wav" WAVE
INDEX 01 00:00:00
TRACK 03 AUDIO
TITLE "Maria"
PERFORMER "Lalo Schifrin"
FLAGS DCP
INDEX 00 02:01:41
FILE "03 - Maria.wav" WAVE
INDEX 01 00:00:00
TRACK 04 AUDIO
TITLE "Rapaz de Bem"
PERFORMER "Lalo Schifrin"
FLAGS DCP
INDEX 00 02:29:56
FILE "04 - Rapaz de Bem.wav" WAVE
INDEX 01 00:00:00
TRACK 05 AUDIO
TITLE "Samba do Perroquet (Parrot Samba)"
PERFORMER "Lalo Schifrin"
FLAGS DCP
INDEX 00 02:34:72
FILE "05 - Samba do Perroquet (Parrot Samba).wav" WAVE
INDEX 01 00:00:00
TRACK 06 AUDIO
TITLE "Rio after Dark"
PERFORMER "Lalo Schifrin"
FLAGS DCP
INDEX 00 02:04:12
FILE "06 - Rio after Dark.wav" WAVE
INDEX 01 00:00:00
TRACK 07 AUDIO
TITLE "Time for Love"
PERFORMER "Lalo Schifrin"
FLAGS DCP
INDEX 00 02:33:41
FILE "07 - Time for Love.wav" WAVE
INDEX 01 00:00:00
TRACK 08 AUDIO
TITLE "(I'm Looking over a) Four Leaf Clover"
PERFORMER "Lalo Schifrin"
FLAGS DCP
INDEX 00 02:26:18
FILE "08 - (I'm Looking over a) Four Leaf Clover.wav" WAVE
INDEX 01 00:00:00
TRACK 09 AUDIO
TITLE "Frenesi"
PERFORMER "Lalo Schifrin"
FLAGS DCP
INDEX 00 01:50:70
FILE "09 - Frenesi.wav" WAVE
INDEX 01 00:00:00
TRACK 10 AUDIO
TITLE "The Breeze and I (Andalucia)"
PERFORMER "Lalo Schifrin"
FLAGS DCP
INDEX 00 03:18:54
FILE "10 - The Breeze and I (Andalucia).wav" WAVE
INDEX 01 00:00:00
TRACK 11 AUDIO
TITLE "Capricho Espanol"
PERFORMER "Lalo Schifrin"
FLAGS DCP
INDEX 00 02:47:69
FILE "11 - Capricho Espanol.wav" WAVE
INDEX 01 00:00:00
TRACK 12 AUDIO
TITLE "My Shawl"
PERFORMER "Lalo Schifrin"
FLAGS DCP
INDEX 00 03:20:60
FILE "12 - My Shawl.wav" WAVE
INDEX 01 00:00:00
TRACK 13 AUDIO
TITLE "Caravan"
PERFORMER "Lalo Schifrin"
FLAGS DCP
INDEX 00 02:44:57
FILE "13 - Caravan.wav" WAVE
INDEX 01 00:00:00
TRACK 14 AUDIO
TITLE "Malaguena"
PERFORMER "Lalo Schifrin"
FLAGS DCP
INDEX 00 03:12:38
FILE "14 - Malaguena.wav" WAVE
INDEX 01 00:00:00
TRACK 15 AUDIO
TITLE "Cha Cha Cha Flamenco "
PERFORMER "Lalo Schifrin"
FLAGS DCP
INDEX 00 02:10:59
FILE "15 - Cha Cha Cha Flamenco.wav" WAVE
INDEX 01 00:00:00
TRACK 16 AUDIO
TITLE "Warsaw Concierto"
PERFORMER "Lalo Schifrin"
FLAGS DCP
INDEX 00 02:52:59
FILE "16 - Warsaw Concierto.wav" WAVE
INDEX 01 00:00:00
TRACK 17 AUDIO
TITLE "Hulablues"
PERFORMER "Lalo Schifrin"
FLAGS DCP
INDEX 00 02:01:15
FILE "17 - Hulablues.wav" WAVE
INDEX 01 00:00:00
TRACK 18 AUDIO
TITLE "Jungle Fantasy"
PERFORMER "Lalo Schifrin"
FLAGS DCP
INDEX 00 03:09:19
FILE "18 - Jungle Fantasy.wav" WAVE
INDEX 01 00:00:00
TRACK 19 AUDIO
TITLE "All the Things You Are"
PERFORMER "Lalo Schifrin"
FLAGS DCP
INDEX 00 02:32:28
FILE "19 - All the Things You Are.wav" WAVE
INDEX 01 00:00:00
TRACK 20 AUDIO
TITLE "El Cumbanchero"
PERFORMER "Lalo Schifrin"
FLAGS DCP
INDEX 00 03:14:70
FILE "20 - El Cumbanchero.wav" WAVE
INDEX 01 00:00:00
TRACK 21 AUDIO
TITLE "Moulin Rouge"
PERFORMER "Lalo Schifrin"
FLAGS DCP
INDEX 00 02:34:64
FILE "21 - Moulin Rouge.wav" WAVE
INDEX 01 00:00:00
TRACK 22 AUDIO
TITLE "Les Oignons"
PERFORMER "Lalo Schifrin"
FLAGS DCP
INDEX 00 03:27:10
FILE "22 - Les Oignons.wav" WAVE
INDEX 01 00:00:00
TRACK 23 AUDIO
TITLE "Fascination"
PERFORMER "Lalo Schifrin"
FLAGS DCP
INDEX 00 02:42:14
FILE "23 - Fascination.wav" WAVE
INDEX 01 00:00:00
TRACK 24 AUDIO
TITLE "Cabello Rojo"
PERFORMER "Lalo Schifrin"
FLAGS DCP
INDEX 00 03:42:50
FILE "24 - Cabello Rojo.wav" WAVE
INDEX 01 00:00:00
TRACK 25 AUDIO
TITLE "Mon Homme"
PERFORMER "Lalo Schifrin"
FLAGS DCP
INDEX 00 03:00:55
FILE "25 - Mon Homme.wav" WAVE
INDEX 01 00:00:00
TRACK 26 AUDIO
TITLE "Mambop"
PERFORMER "Lalo Schifrin"
FLAGS DCP
INDEX 00 03:34:11
FILE "26 - Mambop.wav" WAVE
INDEX 01 00:00:00
TRACK 27 AUDIO
TITLE "Pigalle"
PERFORMER "Lalo Schifrin"
FLAGS DCP
INDEX 00 02:58:28
FILE "27 - Pigalle.wav" WAVE
INDEX 01 00:00:00
TRACK 28 AUDIO
TITLE "Serenade Mediterraneenne (bolero)"
PERFORMER "Lalo Schifrin"
FLAGS DCP
INDEX 00 03:04:16
FILE "28 - Serenade Mediterraneenne (bolero).wav" WAVE
INDEX 01 00:00:00
 
back cover
20:31
278
Нет комментариев. Ваш будет первым!