Поиск

(Afro-Cuban Jazz, Post-Bop) [CD] Francisco Mora Catlett - Mora! - 1986 (2012 Japan Edition), FLAC (tracks+.cue), lossless

(Afro-Cuban Jazz, Post-Bop) [CD] Francisco Mora Catlett - Mora! - 1986 (2012 Japan Edition), FLAC (tracks+.cue), lossless
Треклист:
Francisco Mora Catlett - Mora!
Жанр: Afro-Cuban Jazz, Post-Bop
Носитель: CD
Страна-производитель диска (релиза): Япония
Год издания: 1986 (2012)
Издатель (лейбл): SHOUT! Productions (Deep Jazz Reality)
Номер по каталогу: SHOUT-255
Страна исполнителя (группы): США
Аудиокодек: FLAC (*.flac)
Тип рипа: tracks+.cue
Битрейт аудио: lossless
Продолжительность: 78:57
Источник (релизер): stoichie (what)
Наличие сканов в содержимом раздачи: нет
Треклист:
01. Prelude Welcome (1:32)
02. Afra Jum (11:54)
03. Rumba Morena (4:53)
04. Five A.M. (5:36)
05. Samba de Amor (7:06)
06. Cultural Warrior (9:29)
07. Epilogue - Conga Hasta la Vista (1:36)
08. Afra Jum (6:28)
09. Amazona Prelude/Dawn (6:55)
10. Amazona (4:04)
11. Samba/Conga de Amor (5:20)
12. El Morro (5:55)
13. Old Man Joe (4:51)
14. Por Que Paro? (0:47)
15. Afra Jum (2:31)
 
Лог создания рипа
Exact Audio Copy V1.0 beta 6 from 9. April 2015
EAC extraction logfile from 19. September 2015, 22:55
Francisco Mora Catlett / Mora!
Used drive : MATSHITADVD+-RW UJ8FB Adapter: 1 ID: 0
Read mode : Secure
Utilize accurate stream : Yes
Defeat audio cache : Yes
Make use of C2 pointers : No
Read offset correction : 6
Overread into Lead-In and Lead-Out : No
Fill up missing offset samples with silence : Yes
Delete leading and trailing silent blocks : No
Null samples used in CRC calculations : Yes
Used interface : Native Win32 interface for Win NT & 2000
Gap handling : Appended to previous track
Used output format : User Defined Encoder
Selected bitrate : 1024 kBit/s
Quality : High
Add ID3 tag : No
Command line compressor : C:\Program Files\Flac\flac.exe
Additional command line options : -8 -V -T "ARTIST=%artist%" -T "TITLE=%title%" -T "ALBUM=%albumtitle%" -T "DATE=%year%" -T "TRACKNUMBER=%tracknr%" -T "GENRE=%genre%" -T "PERFORMER=%albuminterpret%" -T "COMPOSER=%composer%" %haslyrics%--tag-from-file=LYRICS="%lyricsfile%"%haslyrics% -T "ALBUMARTIST=%albumartist%" -T "DISCNUMBER=%cdnumber%" -T "TOTALDISCS=%totalcds%" -T "TOTALTRACKS=%numtracks%" -T "COMMENT=%comment%" %source% -o %dest%
TOC of the extracted CD
Track | Start | Length | Start sector | End sector
---------------------------------------------------------
1 | 0:00.00 | 1:31.64 | 0 | 6888
2 | 1:31.64 | 11:54.32 | 6889 | 60470
3 | 13:26.21 | 4:52.58 | 60471 | 82428
4 | 18:19.04 | 5:36.26 | 82429 | 107654
5 | 23:55.30 | 7:06.03 | 107655 | 139607
6 | 31:01.33 | 9:28.59 | 139608 | 182266
7 | 40:30.17 | 1:36.17 | 182267 | 189483
8 | 42:06.34 | 6:28.36 | 189484 | 218619
9 | 48:34.70 | 6:54.69 | 218620 | 249738
10 | 55:29.64 | 4:03.50 | 249739 | 268013
11 | 59:33.39 | 5:20.35 | 268014 | 292048
12 | 64:53.74 | 5:55.01 | 292049 | 318674
13 | 70:49.00 | 4:51.04 | 318675 | 340503
14 | 75:40.04 | 0:47.33 | 340504 | 344061
15 | 76:27.37 | 2:30.43 | 344062 | 355354
Track 1
Filename C:\EAC Rips\Francisco Mora Catlett - Mora! (1986)\01 - Prelude Welcome.wav
Pre-gap length 0:00:02.00
Peak level 81.8 %
Extraction speed 2.3 X
Track quality 100.0 %
Test CRC 71F75082
Copy CRC 71F75082
Track not present in AccurateRip database
Copy OK
Track 2
Filename C:\EAC Rips\Francisco Mora Catlett - Mora! (1986)\02 - Afra Jum.wav
Peak level 83.0 %
Extraction speed 3.4 X
Track quality 99.9 %
Test CRC B2125BD8
Copy CRC B2125BD8
Track not present in AccurateRip database
Copy OK
Track 3
Filename C:\EAC Rips\Francisco Mora Catlett - Mora! (1986)\03 - Rumba Morena.wav
Peak level 83.6 %
Extraction speed 3.3 X
Track quality 99.9 %
Test CRC 6A018C5F
Copy CRC 6A018C5F
Track not present in AccurateRip database
Copy OK
Track 4
Filename C:\EAC Rips\Francisco Mora Catlett - Mora! (1986)\04 - Five A.M..wav
Pre-gap length 0:00:00.68
Peak level 81.1 %
Extraction speed 0.2 X
Track quality 100.0 %
Test CRC 1606D626
Copy CRC 1606D626
Track not present in AccurateRip database
Copy OK
Track 5
Filename C:\EAC Rips\Francisco Mora Catlett - Mora! (1986)\05 - Samba De Amor.wav
Pre-gap length 0:00:02.00
Peak level 87.0 %
Extraction speed 4.6 X
Track quality 100.0 %
Test CRC CB85C815
Copy CRC CB85C815
Track not present in AccurateRip database
Copy OK
Track 6
Filename C:\EAC Rips\Francisco Mora Catlett - Mora! (1986)\06 - Cultural Warrior.wav
Pre-gap length 0:00:02.00
Peak level 81.2 %
Extraction speed 5.1 X
Track quality 100.0 %
Test CRC 2F2B52D3
Copy CRC 2F2B52D3
Track not present in AccurateRip database
Copy OK
Track 7
Filename C:\EAC Rips\Francisco Mora Catlett - Mora! (1986)\07 - Epilogue - Conga Hasta La Vista.wav
Pre-gap length 0:00:01.97
Peak level 80.4 %
Extraction speed 4.0 X
Track quality 100.0 %
Test CRC BA5E3D59
Copy CRC BA5E3D59
Track not present in AccurateRip database
Copy OK
Track 8
Filename C:\EAC Rips\Francisco Mora Catlett - Mora! (1986)\08 - Afra Jum.wav
Pre-gap length 0:00:02.00
Peak level 74.5 %
Extraction speed 5.3 X
Track quality 100.0 %
Test CRC B5877DB4
Copy CRC B5877DB4
Track not present in AccurateRip database
Copy OK
Track 9
Filename C:\EAC Rips\Francisco Mora Catlett - Mora! (1986)\09 - Amazona Prelude , Dawn.wav
Pre-gap length 0:00:01.18
Peak level 74.6 %
Extraction speed 5.6 X
Track quality 100.0 %
Test CRC 051F4AD0
Copy CRC 051F4AD0
Track not present in AccurateRip database
Copy OK
Track 10
Filename C:\EAC Rips\Francisco Mora Catlett - Mora! (1986)\10 - Amazona.wav
Pre-gap length 0:00:02.00
Peak level 75.8 %
Extraction speed 4.5 X
Track quality 99.9 %
Test CRC E87A76F7
Copy CRC E87A76F7
Track not present in AccurateRip database
Copy OK
Track 11
Filename C:\EAC Rips\Francisco Mora Catlett - Mora! (1986)\11 - Samba , Conga De Amor.wav
Pre-gap length 0:00:02.00
Peak level 79.3 %
Extraction speed 5.8 X
Track quality 100.0 %
Test CRC 45F83CB8
Copy CRC 45F83CB8
Track not present in AccurateRip database
Copy OK
Track 12
Filename C:\EAC Rips\Francisco Mora Catlett - Mora! (1986)\12 - El Morro.wav
Pre-gap length 0:00:02.00
Peak level 74.6 %
Extraction speed 6.1 X
Track quality 100.0 %
Test CRC 4F66FA43
Copy CRC 4F66FA43
Track not present in AccurateRip database
Copy OK
Track 13
Filename C:\EAC Rips\Francisco Mora Catlett - Mora! (1986)\13 - Old Man Joe.wav
Pre-gap length 0:00:02.00
Peak level 73.0 %
Extraction speed 6.1 X
Track quality 100.0 %
Test CRC F8C35448
Copy CRC F8C35448
Track not present in AccurateRip database
Copy OK
Track 14
Filename C:\EAC Rips\Francisco Mora Catlett - Mora! (1986)\14 - ¿Por Que Paro.wav
Pre-gap length 0:00:02.00
Peak level 57.9 %
Extraction speed 2.3 X
Track quality 99.7 %
Test CRC 3486BA73
Copy CRC 3486BA73
Track not present in AccurateRip database
Copy OK
Track 15
Filename C:\EAC Rips\Francisco Mora Catlett - Mora! (1986)\15 - Afra Jum.wav
Pre-gap length 0:00:00.01
Peak level 74.6 %
Extraction speed 5.7 X
Track quality 100.0 %
Test CRC 2621F87D
Copy CRC 2621F87D
Track not present in AccurateRip database
Copy OK
None of the tracks are present in the AccurateRip database
No errors occurred
End of status report
---- CUETools DB Plugin V2.1.6
[CTDB TOCID: 7mBeD8qw5ZOFGKwAzLremS5WxYA-] disk not present in database
Submit result: 7mBeD8qw5ZOFGKwAzLremS5WxYA- has been uploaded
==== Log checksum 6B7D67FB66586C48D88BAE45D37EE6AAE10B973E4CAEE57B34482813BAC97C2E ====
 
Содержание индексной карты (.CUE)
REM GENRE Jazz
REM DATE 1986
REM DISCID DC12820F
REM COMMENT "ExactAudioCopy v1.0b6"
PERFORMER "Francisco Mora Catlett"
TITLE "Mora!"
FILE "01 - Prelude Welcome.wav" WAVE
TRACK 01 AUDIO
TITLE "Prelude Welcome"
PERFORMER "Francisco Mora Catlett"
INDEX 01 00:00:00
FILE "02 - Afra Jum.wav" WAVE
TRACK 02 AUDIO
TITLE "Afra Jum"
PERFORMER "Francisco Mora Catlett"
INDEX 01 00:00:00
FILE "03 - Rumba Morena.wav" WAVE
TRACK 03 AUDIO
TITLE "Rumba Morena"
PERFORMER "Francisco Mora Catlett"
INDEX 01 00:00:00
TRACK 04 AUDIO
TITLE "Five A.M."
PERFORMER "Francisco Mora Catlett"
INDEX 00 04:52:07
FILE "04 - Five A.M..wav" WAVE
INDEX 01 00:00:00
TRACK 05 AUDIO
TITLE "Samba de Amor"
PERFORMER "Francisco Mora Catlett"
INDEX 00 05:34:26
FILE "05 - Samba de Amor.wav" WAVE
INDEX 01 00:00:00
TRACK 06 AUDIO
TITLE "Cultural Warrior"
PERFORMER "Francisco Mora Catlett"
INDEX 00 07:04:03
FILE "06 - Cultural Warrior.wav" WAVE
INDEX 01 00:00:00
TRACK 07 AUDIO
TITLE "Epilogue - Conga Hasta la Vista"
PERFORMER "Francisco Mora Catlett"
INDEX 00 09:26:61
FILE "07 - Epilogue - Conga Hasta la Vista.wav" WAVE
INDEX 01 00:00:00
TRACK 08 AUDIO
TITLE "Afra Jum"
PERFORMER "Francisco Mora Catlett"
INDEX 00 01:34:17
FILE "08 - Afra Jum.wav" WAVE
INDEX 01 00:00:00
TRACK 09 AUDIO
TITLE "Amazona Prelude/Dawn"
PERFORMER "Francisco Mora Catlett"
INDEX 00 06:27:22
FILE "09 - Amazona Prelude,Dawn.wav" WAVE
INDEX 01 00:00:00
TRACK 10 AUDIO
TITLE "Amazona"
PERFORMER "Francisco Mora Catlett"
INDEX 00 06:52:69
FILE "10 - Amazona.wav" WAVE
INDEX 01 00:00:00
TRACK 11 AUDIO
TITLE "Samba/Conga de Amor"
PERFORMER "Francisco Mora Catlett"
INDEX 00 04:01:50
FILE "11 - Samba,Conga de Amor.wav" WAVE
INDEX 01 00:00:00
TRACK 12 AUDIO
TITLE "El Morro"
PERFORMER "Francisco Mora Catlett"
INDEX 00 05:18:35
FILE "12 - El Morro.wav" WAVE
INDEX 01 00:00:00
TRACK 13 AUDIO
TITLE "Old Man Joe"
PERFORMER "Francisco Mora Catlett"
INDEX 00 05:53:01
FILE "13 - Old Man Joe.wav" WAVE
INDEX 01 00:00:00
TRACK 14 AUDIO
TITLE "Por Que Paro?"
PERFORMER "Francisco Mora Catlett"
INDEX 00 04:49:04
FILE "14 - Por Que Paro.wav" WAVE
INDEX 01 00:00:00
TRACK 15 AUDIO
TITLE "Afra Jum"
PERFORMER "Francisco Mora Catlett"
INDEX 00 00:47:32
FILE "15 - Afra Jum.wav" WAVE
INDEX 01 00:00:00
 
Отчет CUETools
[CUETools log; Date: 30.01.2016 1:38:24; Version: 2.1.5]
[CTDB TOCID: 7mBeD8qw5ZOFGKwAzLremS5WxYA-] found.
Track | CTDB Status
1 | (1/1) Accurately ripped
2 | (1/1) Accurately ripped
3 | (1/1) Accurately ripped
4 | (1/1) Accurately ripped
5 | (1/1) Accurately ripped
6 | (1/1) Accurately ripped
7 | (1/1) Accurately ripped
8 | (1/1) Accurately ripped
9 | (1/1) Accurately ripped
10 | (1/1) Accurately ripped
11 | (1/1) Accurately ripped
12 | (1/1) Accurately ripped
13 | (1/1) Accurately ripped
14 | (1/1) Accurately ripped
15 | (1/1) Accurately ripped
[AccurateRip ID: 0030276d-021ba745-dc12820f] disk not present in database.
Track Peak [ CRC32 ] [W/O NULL] [ LOG ]
-- 87,0 [60D0AD00] [895896B4]
01 81,8 [71F75082] [2210E1F1] CRC32
02 83,0 [B2125BD8] [B34AA3E0] CRC32
03 83,6 [6A018C5F] [F6EBFF5C] CRC32
04 81,1 [1606D626] [A6B7A74F] CRC32
05 87,0 [CB85C815] [95C17DDE] CRC32
06 81,2 [2F2B52D3] [02DFD0DF] CRC32
07 80,4 [BA5E3D59] [32464DE4] CRC32
08 74,5 [B5877DB4] [9579D243] CRC32
09 74,6 [051F4AD0] [987242E7] CRC32
10 75,8 [E87A76F7] [21CD0079] CRC32
11 79,3 [45F83CB8] [C88845DF] CRC32
12 74,6 [4F66FA43] [4A6586A6] CRC32
13 73,0 [F8C35448] [FB5E8150] CRC32
14 57,9 [3486BA73] [6E0144DD] CRC32
15 74,6 [2621F87D] [E1530218] CRC32
 
AllMusic Review by Michael G. Nastos
The debut recording for drummer and percussionist Francisco Mora (Catlett) has him leading a band of fellow Detroiters through a program of fine Latin jazz, with an emphasis on original modern jazz.
 
Состав
Francisco Mora Catlett - drums, percussion
Kenny Cox - piano
Vincent Bowens - soprano saxophone, tenor saxophone, flute
Rodney Whitaker - bass
Emile Borde - steel drums, percussion
Alberto Nacif - quinto, congas, percussion
Jerome Le Duff - berimbau, percussion
Teresa G. Mora - vocal, percussion
Recorded at Studio A, Dearborn Heights, MI.
#8-15 (from the album "River Drum")
Francisco Mora Catlett - drums
Marcus Belgrave, John Douglass - trumpet
Sherman Mitchell - trombone, flute, oboe
Vincent Bowens - tenor saxophone, flute
Alex Harding - baritone saxophone, bass clarinet
Kenny Cox - piano
Rodney Whitaker - bass
Emile Borde - steel drums
Alberto Nacif, Jerome Le Duff - percussion
Teresa G. Mora - vocal (#10)
All music written, arranged and produced by Francisco Mora Catlett.
20:32
238
Нет комментариев. Ваш будет первым!