Поиск

(Fusion, Shakuhachi) [CD] John Kaizan Neptune - Tokyosphere - 1988, FLAC (tracks+.cue), lossless

(Fusion, Shakuhachi) [CD] John Kaizan Neptune - Tokyosphere - 1988, FLAC (tracks+.cue), lossless
Треклист:
John Kaizan Neptune - Tokyosphere
Жанр: Fusion, Shakuhachi
Носитель: CD
Страна-производитель диска (релиза): США
Год издания: 1988
Издатель (лейбл): JVC/Victor Musical Industries
Номер по каталогу: JD-3316
Аудиокодек: FLAC (*.flac)
Тип рипа: tracks+.cue
Битрейт аудио: lossless
Продолжительность: 64:48
Источник (релизер): povsemestno (what)
Наличие сканов в содержимом раздачи: сетевые
Треклист:
01. Yamato Dawn (7:07)
02. Seventh Avenue (6:12)
03. Tokyo Blues (6:22)
04. Jungle Trail (6:15)
05. Hear the Light (7:06)
06. Time Design (8:07)
07. Flow (6:12)
08. Sway (3:22)
09. Stream Dance (5:10)
10. In the Air (8:55)
Состав:
John Kaizan Neptune - shakuhachi
Satomi Fukami, Junko Chikushi - koto
Yasuko Watanabe - bass koto
Yoshinori Nomi, Hiromitsu Katada - Japanese percussion
Special Guest:
Erik Golub - kokyu
Recorded at JVC Aoyama Studio on May 9-12, 1988.
All music composed and arranged by John Kaizan Neptune.
 
Лог создания рипа
Exact Audio Copy V1.0 beta 1 from 15. November 2010
EAC extraction logfile from 31. January 2011, 18:38
John Kaizan Neptune / Tokyosphere
Used drive : ASUS DRW-2014S1 Adapter: 0 ID: 0
Read mode : Secure
Utilize accurate stream : Yes
Defeat audio cache : Yes
Make use of C2 pointers : No
Read offset correction : 6
Overread into Lead-In and Lead-Out : Yes
Fill up missing offset samples with silence : Yes
Delete leading and trailing silent blocks : No
Null samples used in CRC calculations : Yes
Used interface : Native Win32 interface for Win NT & 2000
Gap handling : Appended to previous track
Used output format : User Defined Encoder
Selected bitrate : 1024 kBit/s
Quality : High
Add ID3 tag : No
Command line compressor : D:\Programs\Encoders\Flac\flac.exe
Additional command line options : -V -8 -T "artist=%a" -T "title=%t" -T "album=%g" -T "date=%y" -T "tracknumber=%n" -T "genre=%m" %s
TOC of the extracted CD
Track | Start | Length | Start sector | End sector
---------------------------------------------------------
1 | 0:00.00 | 7:07.09 | 0 | 32033
2 | 7:07.09 | 6:11.43 | 32034 | 59901
3 | 13:18.52 | 6:21.45 | 59902 | 88521
4 | 19:40.22 | 6:14.53 | 88522 | 116624
5 | 25:55.00 | 7:05.66 | 116625 | 148565
6 | 33:00.66 | 8:07.05 | 148566 | 185095
7 | 41:07.71 | 6:11.48 | 185096 | 212968
8 | 47:19.44 | 3:21.58 | 212969 | 228101
9 | 50:41.27 | 5:10.26 | 228102 | 251377
10 | 55:51.53 | 8:55.12 | 251378 | 291514
Track 1
Filename L:\Temp\John Kaizan Neptune - Tokyosphere (1988)\01 - Yamato Dawn.wav
Pre-gap length 0:00:02.00
Peak level 100.0 %
Extraction speed 5.4 X
Track quality 100.0 %
Test CRC 49D87000
Copy CRC 49D87000
Track not present in AccurateRip database
Copy OK
Track 2
Filename L:\Temp\John Kaizan Neptune - Tokyosphere (1988)\02 - Seventh Avenue.wav
Peak level 82.9 %
Extraction speed 4.4 X
Track quality 99.9 %
Test CRC C60DDCAE
Copy CRC C60DDCAE
Track not present in AccurateRip database
Copy OK
Track 3
Filename L:\Temp\John Kaizan Neptune - Tokyosphere (1988)\03 - Tokyo Blues.wav
Peak level 100.0 %
Extraction speed 5.3 X
Track quality 100.0 %
Test CRC 9D724E63
Copy CRC 9D724E63
Track not present in AccurateRip database
Copy OK
Track 4
Filename L:\Temp\John Kaizan Neptune - Tokyosphere (1988)\04 - Jungle Trail.wav
Peak level 100.0 %
Extraction speed 5.7 X
Track quality 100.0 %
Test CRC 7B2141A0
Copy CRC 7B2141A0
Track not present in AccurateRip database
Copy OK
Track 5
Filename L:\Temp\John Kaizan Neptune - Tokyosphere (1988)\05 - Hear the Light.wav
Peak level 98.1 %
Extraction speed 6.1 X
Track quality 100.0 %
Test CRC B672552B
Copy CRC B672552B
Track not present in AccurateRip database
Copy OK
Track 6
Filename L:\Temp\John Kaizan Neptune - Tokyosphere (1988)\06 - Time Design.wav
Peak level 99.7 %
Extraction speed 6.6 X
Track quality 100.0 %
Test CRC B47D105C
Copy CRC B47D105C
Track not present in AccurateRip database
Copy OK
Track 7
Filename L:\Temp\John Kaizan Neptune - Tokyosphere (1988)\07 - Flow.wav
Peak level 53.3 %
Extraction speed 6.8 X
Track quality 100.0 %
Test CRC BB1EC21D
Copy CRC BB1EC21D
Track not present in AccurateRip database
Copy OK
Track 8
Filename L:\Temp\John Kaizan Neptune - Tokyosphere (1988)\08 - Sway.wav
Peak level 73.4 %
Extraction speed 6.6 X
Track quality 100.0 %
Test CRC 0B8945A0
Copy CRC 0B8945A0
Track not present in AccurateRip database
Copy OK
Track 9
Filename L:\Temp\John Kaizan Neptune - Tokyosphere (1988)\09 - Stream Dance.wav
Peak level 100.0 %
Extraction speed 7.1 X
Track quality 100.0 %
Test CRC 2F875E4E
Copy CRC 2F875E4E
Track not present in AccurateRip database
Copy OK
Track 10
Filename L:\Temp\John Kaizan Neptune - Tokyosphere (1988)\10 - In the Air.wav
Peak level 81.9 %
Extraction speed 8.4 X
Track quality 100.0 %
Test CRC 376D030E
Copy CRC 376D030E
Track not present in AccurateRip database
Copy OK
None of the tracks are present in the AccurateRip database
No errors occurred
End of status report
==== Log checksum 898A5C24D2B8124EBCC870040192465E56CA138D09C3760CC472FF5E49C7401C ====
 
Содержание индексной карты (.CUE)
REM GENRE Jazz
REM DATE 1988
REM DISCID 870F2E0A
REM COMMENT "ExactAudioCopy v1.0b1"
PERFORMER "John Kaizan Neptune"
TITLE "Tokyosphere"
FILE "01 - Yamato Dawn.wav" WAVE
TRACK 01 AUDIO
TITLE "Yamato Dawn"
PERFORMER "John Kaizan Neptune"
INDEX 01 00:00:00
FILE "02 - Seventh Avenue.wav" WAVE
TRACK 02 AUDIO
TITLE "Seventh Avenue"
PERFORMER "John Kaizan Neptune"
INDEX 01 00:00:00
FILE "03 - Tokyo Blues.wav" WAVE
TRACK 03 AUDIO
TITLE "Tokyo Blues"
PERFORMER "John Kaizan Neptune"
INDEX 01 00:00:00
FILE "04 - Jungle Trail.wav" WAVE
TRACK 04 AUDIO
TITLE "Jungle Trail"
PERFORMER "John Kaizan Neptune"
INDEX 01 00:00:00
FILE "05 - Hear the Light.wav" WAVE
TRACK 05 AUDIO
TITLE "Hear the Light"
PERFORMER "John Kaizan Neptune"
INDEX 01 00:00:00
FILE "06 - Time Design.wav" WAVE
TRACK 06 AUDIO
TITLE "Time Design"
PERFORMER "John Kaizan Neptune"
INDEX 01 00:00:00
FILE "07 - Flow.wav" WAVE
TRACK 07 AUDIO
TITLE "Flow"
PERFORMER "John Kaizan Neptune"
INDEX 01 00:00:00
FILE "08 - Sway.wav" WAVE
TRACK 08 AUDIO
TITLE "Sway"
PERFORMER "John Kaizan Neptune"
INDEX 01 00:00:00
FILE "09 - Stream Dance.wav" WAVE
TRACK 09 AUDIO
TITLE "Stream Dance"
PERFORMER "John Kaizan Neptune"
INDEX 01 00:00:00
FILE "10 - In the Air.wav" WAVE
TRACK 10 AUDIO
TITLE "In the Air"
PERFORMER "John Kaizan Neptune"
INDEX 01 00:00:00
 
Отчет CUETools
[CUETools log; Date: 30.01.2016 14:43:20; Version: 2.1.5]
[CTDB TOCID: nJy87Iij1XPhhsYnj9jtD7_JDwo-] disk not present in database.
[AccurateRip ID: 0018a375-00c40073-870f2e0a] found.
Track [ CRC | V2 ] Status
01 [deadb567|420c9593] (0+1/1) Accurately ripped
02 [f03dd0fd|c684c153] (0+1/1) Accurately ripped
03 [0f13dab9|3a716f2e] (0+1/1) Accurately ripped
04 [f34084e8|439d631a] (0+1/1) Accurately ripped
05 [08f0a5e5|875f6b14] (0+1/1) Accurately ripped
06 [e7f78e8b|3f0d04a7] (0+1/1) Accurately ripped
07 [e75ce75c|971c5646] (0+1/1) Accurately ripped
08 [1de87f91|ead94acd] (0+1/1) Accurately ripped
09 [587cf8be|68cf85cd] (0+1/1) Accurately ripped
10 [6d9c8146|939dd92b] (0+1/1) Accurately ripped
Track Peak [ CRC32 ] [W/O NULL] [ LOG ]
-- 100,0 [A482CA89] [BF675172]
01 100,0 [49D87000] [28E98A12] CRC32
02 82,9 [C60DDCAE] [E2F32B77] CRC32
03 100,0 [9D724E63] [8C447F13] CRC32
04 100,0 [7B2141A0] [5623125D] CRC32
05 98,1 [B672552B] [3B5892FB] CRC32
06 99,7 [B47D105C] [63595A2A] CRC32
07 53,3 [BB1EC21D] [DF0A1E03] CRC32
08 73,4 [0B8945A0] [9389B216] CRC32
09 100,0 [2F875E4E] [2A6D2E3A] CRC32
10 81,9 [376D030E] [86268ECA] CRC32
 
Об альбоме (сборнике)
Tokyosphere, like Tokyo, has virtually no limits. In the case of the amazing city itself, which is a vast international stage, the only boundaries are those imposed by reality. In the case of this amazing group, whose stage is international, the only reality is the unbounded musical imagination of John Kaizan Neptune and his multi-talented co-performers.
Tokyosphere is the first Neptune group to be forged exclusively of artists who, like Neptune himself, are masters in traditional Japanese instruments. All of the members of Tokyoshere are concert soloists in their own right. All are licensed masters of their instruments-- regular performers on Japanese radio and TV and familiar to many audiences around the world. Among their many credits are various cultural awards and numerous recordings both in the traditional as well as contemporary music fields.
Tokyosphere explores a unique spectrum of sound textures that refuses to be categorized. There are Japanese "shibui" moments of mellow, jazz moments with pizzazz, contemporary and traditional flavors with spices improvised from both East and West.
20:33
312
Нет комментариев. Ваш будет первым!