Поиск

(Latin Jazz) [CD] Eddie Marshall - Cookin' for You - 1996, FLAC (tracks+.cue), lossless

(Latin Jazz) [CD] Eddie Marshall - Cookin' for You - 1996, FLAC (tracks+.cue), lossless
Треклист:
Eddie Marshall - Cookin' for You
Жанр: Latin Jazz
Носитель: CD
Страна-производитель диска (релиза): США
Год издания: 1996
Издатель (лейбл): Songosaurus
Номер по каталогу: 724775
Аудиокодек: FLAC (*.flac)
Тип рипа: tracks+.cue
Битрейт аудио: lossless
Продолжительность: 56:19
Источник (релизер): Howinator (what)
Наличие сканов в содержимом раздачи: нет
Треклист:
01. Cookin' for You (4:37)
02. Eddie's Festejo (3:39)
03. Pachelbel's Canon in D (5:32)
04. Sarava (6:13)
05. La Calle Ocho (3:54)
06. Jesu Joy of Man's Desiring (1:46)
07. Nebulosa (3:34)
08. Pure Drops of Moonlight (4:35)
09. Katunia (5:37)
10. Songosaurus (3:00)
11. Bluesette (3:16)
12. Wish (4:24)
13. Glorious (6:12)
Состав:
Eddie Marshall - saxophone, flute
Steve Rodby - bass
Paul Wertico - drums
Richard Drexler, Jose Luis Madueno - piano
Randy Johnston, Richie Zellon - guitar
и др.
 
Лог создания рипа
X Lossless Decoder version 20131102 (145.0)
XLD extraction logfile from 2014-01-19 19:22:59 -0600
Eddie Marshall / Cookin' For You
Used drive : MATSHITA DVD-R UJ-8A8 (revision HB14)
Media type : Pressed CD
Ripper mode : XLD Secure Ripper
Disable audio cache : OK for the drive with a cache less than 1375KiB
Make use of C2 pointers : NO
Read offset correction : 102
Max retry count : 20
Gap status : Analyzed, Appended (except HTOA)
TOC of the extracted CD
Track | Start | Length | Start sector | End sector
---------------------------------------------------------
1 | 00:00:00 | 04:36:54 | 0 | 20753
2 | 04:36:54 | 03:38:46 | 20754 | 37149
3 | 08:15:25 | 05:31:47 | 37150 | 62021
4 | 13:46:72 | 06:13:15 | 62022 | 90011
5 | 20:00:12 | 03:53:53 | 90012 | 107539
6 | 23:53:65 | 01:45:59 | 107540 | 115473
7 | 25:39:49 | 03:33:59 | 115474 | 131507
8 | 29:13:33 | 04:35:16 | 131508 | 152148
9 | 33:48:49 | 05:37:16 | 152149 | 177439
10 | 39:25:65 | 02:59:66 | 177440 | 190930
11 | 42:25:56 | 03:15:65 | 190931 | 205620
12 | 45:41:46 | 04:23:48 | 205621 | 225393
13 | 50:05:19 | 06:12:17 | 225394 | 253310
AccurateRip Summary
Disc not found in AccurateRip DB.
All Tracks
Album gain : -1.07 dB
Peak : 0.944061
Statistics
Read error : 0
Jitter error (maybe fixed) : 0
Retry sector count : 7
Damaged sector count : 0
Track 01
Filename : /Users/Howie/SeedboxXfers/Eddie Marshall - Cookin' For You (1996) [FLAC]/01 Cookin' for You.flac
Pre-gap length : 00:02:00
Track gain : -0.01 dB
Peak : 0.941620
CRC32 hash (test run) : 7844F948
CRC32 hash : 7844F948
CRC32 hash (skip zero) : C28F64AD
AccurateRip v1 signature : 95A7A029
AccurateRip v2 signature : AD2A94B8
->Track not present in AccurateRip database.
Statistics
Read error : 0
Jitter error (maybe fixed) : 0
Retry sector count : 7
Damaged sector count : 0
Track 02
Filename : /Users/Howie/SeedboxXfers/Eddie Marshall - Cookin' For You (1996) [FLAC]/02 Eddie's Festejo.flac
Pre-gap length : 00:01:45
Track gain : -1.94 dB
Peak : 0.823212
CRC32 hash (test run) : 2F990A1A
CRC32 hash : 2F990A1A
CRC32 hash (skip zero) : 88D21808
AccurateRip v1 signature : C682F3AD
AccurateRip v2 signature : 3B09D0E3
->Track not present in AccurateRip database.
Statistics
Read error : 0
Jitter error (maybe fixed) : 0
Retry sector count : 0
Damaged sector count : 0
Track 03
Filename : /Users/Howie/SeedboxXfers/Eddie Marshall - Cookin' For You (1996) [FLAC]/03 Pachelbel's Canon in D.flac
Pre-gap length : 00:01:45
Track gain : -1.50 dB
Peak : 0.774963
CRC32 hash (test run) : CDFB32A1
CRC32 hash : CDFB32A1
CRC32 hash (skip zero) : B3292E4A
AccurateRip v1 signature : FF2C49AB
AccurateRip v2 signature : BCA365B0
->Track not present in AccurateRip database.
Statistics
Read error : 0
Jitter error (maybe fixed) : 0
Retry sector count : 0
Damaged sector count : 0
Track 04
Filename : /Users/Howie/SeedboxXfers/Eddie Marshall - Cookin' For You (1996) [FLAC]/04 Sarava.flac
Pre-gap length : 00:02:45
Track gain : 0.06 dB
Peak : 0.881073
CRC32 hash (test run) : F4E7F41C
CRC32 hash : F4E7F41C
CRC32 hash (skip zero) : E6E3B72D
AccurateRip v1 signature : 27884B38
AccurateRip v2 signature : E425A93F
->Track not present in AccurateRip database.
Statistics
Read error : 0
Jitter error (maybe fixed) : 0
Retry sector count : 0
Damaged sector count : 0
Track 05
Filename : /Users/Howie/SeedboxXfers/Eddie Marshall - Cookin' For You (1996) [FLAC]/05 La Calle Ocho.flac
Pre-gap length : 00:01:45
Track gain : -3.31 dB
Peak : 0.944061
CRC32 hash (test run) : CB66F659
CRC32 hash : CB66F659
CRC32 hash (skip zero) : 11497742
AccurateRip v1 signature : B242F6FF
AccurateRip v2 signature : 06E51F32
->Track not present in AccurateRip database.
Statistics
Read error : 0
Jitter error (maybe fixed) : 0
Retry sector count : 0
Damaged sector count : 0
Track 06
Filename : /Users/Howie/SeedboxXfers/Eddie Marshall - Cookin' For You (1996) [FLAC]/06 Jesu Joy of Man's Desiring.flac
Pre-gap length : 00:01:45
Track gain : -0.33 dB
Peak : 0.944031
CRC32 hash (test run) : 8EE8FE97
CRC32 hash : 8EE8FE97
CRC32 hash (skip zero) : 2C29BB96
AccurateRip v1 signature : B81DD4F3
AccurateRip v2 signature : 3D3E86F0
->Track not present in AccurateRip database.
Statistics
Read error : 0
Jitter error (maybe fixed) : 0
Retry sector count : 0
Damaged sector count : 0
Track 07
Filename : /Users/Howie/SeedboxXfers/Eddie Marshall - Cookin' For You (1996) [FLAC]/07 Nebulosa.flac
Track gain : 0.24 dB
Peak : 0.769470
CRC32 hash (test run) : D5D7C98C
CRC32 hash : D5D7C98C
CRC32 hash (skip zero) : 805C7434
AccurateRip v1 signature : 4C5EEA5C
AccurateRip v2 signature : 35BEAC12
->Track not present in AccurateRip database.
Statistics
Read error : 0
Jitter error (maybe fixed) : 0
Retry sector count : 0
Damaged sector count : 0
Track 08
Filename : /Users/Howie/SeedboxXfers/Eddie Marshall - Cookin' For You (1996) [FLAC]/08 Pure Drops of Moonlight.flac
Pre-gap length : 00:01:45
Track gain : 0.34 dB
Peak : 0.943115
CRC32 hash (test run) : F32E2247
CRC32 hash : F32E2247
CRC32 hash (skip zero) : 79C85888
AccurateRip v1 signature : F4418BF7
AccurateRip v2 signature : 9FCE8166
->Track not present in AccurateRip database.
Statistics
Read error : 0
Jitter error (maybe fixed) : 0
Retry sector count : 0
Damaged sector count : 0
Track 09
Filename : /Users/Howie/SeedboxXfers/Eddie Marshall - Cookin' For You (1996) [FLAC]/09 Katunia.flac
Track gain : 0.52 dB
Peak : 0.845245
CRC32 hash (test run) : 824D015E
CRC32 hash : 824D015E
CRC32 hash (skip zero) : 34B93BDC
AccurateRip v1 signature : A20D9EA9
AccurateRip v2 signature : 7B23CD2E
->Track not present in AccurateRip database.
Statistics
Read error : 0
Jitter error (maybe fixed) : 0
Retry sector count : 0
Damaged sector count : 0
Track 10
Filename : /Users/Howie/SeedboxXfers/Eddie Marshall - Cookin' For You (1996) [FLAC]/10 Songosaurus.flac
Pre-gap length : 00:01:45
Track gain : -1.27 dB
Peak : 0.865784
CRC32 hash (test run) : 4DDC9797
CRC32 hash : 4DDC9797
CRC32 hash (skip zero) : 59E20D38
AccurateRip v1 signature : 725028B4
AccurateRip v2 signature : E81F05F9
->Track not present in AccurateRip database.
Statistics
Read error : 0
Jitter error (maybe fixed) : 0
Retry sector count : 0
Damaged sector count : 0
Track 11
Filename : /Users/Howie/SeedboxXfers/Eddie Marshall - Cookin' For You (1996) [FLAC]/11 Bluesette.flac
Pre-gap length : 00:01:45
Track gain : -2.33 dB
Peak : 0.944061
CRC32 hash (test run) : B59FA638
CRC32 hash : B59FA638
CRC32 hash (skip zero) : 53CE3D87
AccurateRip v1 signature : 37E0A303
AccurateRip v2 signature : 265910AF
->Track not present in AccurateRip database.
Statistics
Read error : 0
Jitter error (maybe fixed) : 0
Retry sector count : 0
Damaged sector count : 0
Track 12
Filename : /Users/Howie/SeedboxXfers/Eddie Marshall - Cookin' For You (1996) [FLAC]/12 Wish.flac
Pre-gap length : 00:01:45
Track gain : -1.74 dB
Peak : 0.944061
CRC32 hash (test run) : C3833139
CRC32 hash : C3833139
CRC32 hash (skip zero) : 01D703BE
AccurateRip v1 signature : ECCC4D56
AccurateRip v2 signature : EC0C99BA
->Track not present in AccurateRip database.
Statistics
Read error : 0
Jitter error (maybe fixed) : 0
Retry sector count : 0
Damaged sector count : 0
Track 13
Filename : /Users/Howie/SeedboxXfers/Eddie Marshall - Cookin' For You (1996) [FLAC]/13 Glorious.flac
Pre-gap length : 00:01:45
Track gain : -1.01 dB
Peak : 0.944061
CRC32 hash (test run) : 5841E683
CRC32 hash : 5841E683
CRC32 hash (skip zero) : 5E6DB65F
AccurateRip v1 signature : B948185F
AccurateRip v2 signature : 088F4826
->Track not present in AccurateRip database.
Statistics
Read error : 0
Jitter error (maybe fixed) : 0
Retry sector count : 0
Damaged sector count : 0
No errors occurred
End of status report
-----BEGIN XLD SIGNATURE-----
LNWLdTGObP4SeB52uTW8tTT.IvQqQ0dN9sMOsYCftp3vWFSnxArwt9WLwRZqRDyFvK0VFSecjXDuM3SxLEaNmPrxxNE.1gq57UhMOh0
-----END XLD SIGNATURE-----
 
Содержание индексной карты (.CUE)
TITLE "Cookin' for You"
PERFORMER "Eddie Marshall"
REM GENRE "Jazz"
REM DATE "1996"
REM DISCID AB0D310D
REM REPLAYGAIN_ALBUM_GAIN -1.07 dB
REM REPLAYGAIN_ALBUM_PEAK 0.944061
FILE "01 - Cookin' for You.flac" WAVE
TRACK 01 AUDIO
TITLE "Cookin' for You"
REM REPLAYGAIN_TRACK_GAIN -0.01 dB
REM REPLAYGAIN_TRACK_PEAK 0.941620
INDEX 01 00:00:00
TRACK 02 AUDIO
TITLE "Eddie's Festejo"
REM REPLAYGAIN_TRACK_GAIN -1.94 dB
REM REPLAYGAIN_TRACK_PEAK 0.823212
INDEX 00 04:35:09
FILE "02 - Eddie's Festejo.flac" WAVE
INDEX 01 00:00:00
TRACK 03 AUDIO
TITLE "Pachelbel's Canon in D"
REM REPLAYGAIN_TRACK_GAIN -1.50 dB
REM REPLAYGAIN_TRACK_PEAK 0.774963
INDEX 00 03:37:01
FILE "03 - Pachelbel's Canon in D.flac" WAVE
INDEX 01 00:00:00
TRACK 04 AUDIO
TITLE "Sarava"
REM REPLAYGAIN_TRACK_GAIN 0.06 dB
REM REPLAYGAIN_TRACK_PEAK 0.881073
INDEX 00 05:29:02
FILE "04 - Sarava.flac" WAVE
INDEX 01 00:00:00
TRACK 05 AUDIO
TITLE "La Calle Ocho"
REM REPLAYGAIN_TRACK_GAIN -3.31 dB
REM REPLAYGAIN_TRACK_PEAK 0.944061
INDEX 00 06:11:45
FILE "05 - La Calle Ocho.flac" WAVE
INDEX 01 00:00:00
TRACK 06 AUDIO
TITLE "Jesu Joy of Man's Desiring"
REM REPLAYGAIN_TRACK_GAIN -0.33 dB
REM REPLAYGAIN_TRACK_PEAK 0.944031
INDEX 00 03:52:08
FILE "06 - Jesu Joy of Man's Desiring.flac" WAVE
INDEX 01 00:00:00
FILE "07 - Nebulosa.flac" WAVE
TRACK 07 AUDIO
TITLE "Nebulosa"
REM REPLAYGAIN_TRACK_GAIN 0.24 dB
REM REPLAYGAIN_TRACK_PEAK 0.769470
INDEX 01 00:00:00
TRACK 08 AUDIO
TITLE "Pure Drops of Moonlight"
REM REPLAYGAIN_TRACK_GAIN 0.34 dB
REM REPLAYGAIN_TRACK_PEAK 0.943115
INDEX 00 03:32:14
FILE "08 - Pure Drops of Moonlight.flac" WAVE
INDEX 01 00:00:00
FILE "09 - Katunia.flac" WAVE
TRACK 09 AUDIO
TITLE "Katunia"
REM REPLAYGAIN_TRACK_GAIN 0.52 dB
REM REPLAYGAIN_TRACK_PEAK 0.845245
INDEX 01 00:00:00
TRACK 10 AUDIO
TITLE "Songosaurus"
REM REPLAYGAIN_TRACK_GAIN -1.27 dB
REM REPLAYGAIN_TRACK_PEAK 0.865784
INDEX 00 05:35:46
FILE "10 - Songosaurus.flac" WAVE
INDEX 01 00:00:00
TRACK 11 AUDIO
TITLE "Bluesette"
REM REPLAYGAIN_TRACK_GAIN -2.33 dB
REM REPLAYGAIN_TRACK_PEAK 0.944061
INDEX 00 02:58:21
FILE "11 - Bluesette.flac" WAVE
INDEX 01 00:00:00
TRACK 12 AUDIO
TITLE "Wish"
REM REPLAYGAIN_TRACK_GAIN -1.74 dB
REM REPLAYGAIN_TRACK_PEAK 0.944061
INDEX 00 03:14:20
FILE "12 - Wish.flac" WAVE
INDEX 01 00:00:00
TRACK 13 AUDIO
TITLE "Glorious"
REM REPLAYGAIN_TRACK_GAIN -1.01 dB
REM REPLAYGAIN_TRACK_PEAK 0.944061
INDEX 00 04:22:03
FILE "13 - Glorious.flac" WAVE
INDEX 01 00:00:00
 
AllMusic Review by Scott Yanow
Veteran reed player Eddie Marshall made his debut as a leader on this CD in 1996. Marshall switches between six reeds and sounds at his most individual and fluent on flute. Richie Zellon is the co-star, not just as a guitar soloist but in putting together much of the material (six of the 13 selections are his) and filling the album with different types of South American and Latin rhythms. The music ranges from light Afro-Cuban jazz to melodic Latin dance music and a rhythmic adaptations of Bach's "Jesu, Joy of Man's Desiring." Overall, this set makes for a pleasant if not overly memorable listen.
20:33
253
Нет комментариев. Ваш будет первым!