Поиск

(Brazilian Jazz, World Fusion) [CD] Manfredo Fest - Braziliana - 1987, FLAC (tracks+.cue), lossless

(Brazilian Jazz, World Fusion) [CD] Manfredo Fest - Braziliana - 1987, FLAC (tracks+.cue), lossless
Треклист:
Manfredo Fest - Braziliana
Жанр: Brazilian Jazz, World Fusion
Носитель: CD
Страна-производитель диска (релиза): США
Год издания: 1987
Издатель (лейбл): Digital Music Productions, Inc.
Номер по каталогу: CD-459
Аудиокодек: FLAC (*.flac)
Тип рипа: tracks+.cue
Битрейт аудио: lossless
Продолжительность: 60:20
Источник (релизер): nothingxs (what)
Наличие сканов в содержимом раздачи: нет
Треклист:
01. Brazilian Dorian Dream (4:37)
02. Facing East (4:40)
03. I Am Happy (4:13)
04. Cafe Colombo (4:52)
05. Brazilian Divertimento (4:34)
06. Leave It to the Sea (3:01)
07. Song for My Mother (3:10)
08. Who Needs It (5:16)
09. Once I Loved (4:56)
10. That's What She Says (3:54)
11. Estamos Ai' (3:49)
12. Braziliana (9:03)
13. Echoes from Bahia (4:15)
Состав:
Manfredo Fest - piano
Paul Socolow - bass
Porthinho - drums
Cyro Baptista - percussion
Roberta Davis - vocals
 
Лог создания рипа
Exact Audio Copy V0.99 prebeta 5 from 4. May 2009
EAC extraction logfile from 24. May 2011, 22:52
Manfredo Fest / Braziliana
Used drive : SONY DVD RW AW-Q170A Adapter: 2 ID: 0
Read mode : Secure
Utilize accurate stream : Yes
Defeat audio cache : Yes
Make use of C2 pointers : No
Read offset correction : 48
Overread into Lead-In and Lead-Out : No
Fill up missing offset samples with silence : Yes
Delete leading and trailing silent blocks : No
Null samples used in CRC calculations : Yes
Used interface : Native Win32 interface for Win NT & 2000
Gap handling : Appended to previous track
Used output format : User Defined Encoder
Selected bitrate : 1024 kBit/s
Quality : High
Add ID3 tag : No
Command line compressor : C:\Program Files (x86)\Exact Audio Copy\FLAC\FLAC.EXE
Additional command line options : -V -8 -T "artist=%a" -T "title=%t" -T "album=%g" -T "date=%y" -T "tracknumber=%n" -T "genre=%m" %s
TOC of the extracted CD
Track | Start | Length | Start sector | End sector
---------------------------------------------------------
1 | 0:00.00 | 4:37.20 | 0 | 20794
2 | 4:37.20 | 4:40.05 | 20795 | 41799
3 | 9:17.25 | 4:13.35 | 41800 | 60809
4 | 13:30.60 | 4:51.57 | 60810 | 82691
5 | 18:22.42 | 4:33.50 | 82692 | 103216
6 | 22:56.17 | 3:01.00 | 103217 | 116791
7 | 25:57.17 | 3:09.68 | 116792 | 131034
8 | 29:07.10 | 5:15.62 | 131035 | 154721
9 | 34:22.72 | 4:55.45 | 154722 | 176891
10 | 39:18.42 | 3:54.05 | 176892 | 194446
11 | 43:12.47 | 3:49.00 | 194447 | 211621
12 | 47:01.47 | 9:03.08 | 211622 | 252354
13 | 56:04.55 | 4:15.12 | 252355 | 271491
Track 1
Filename X:\new rips\Manfredo Fest - 1987 - Braziliana\01 - Brazillian Dorian Dream.wav
Pre-gap length 0:00:02.00
Peak level 97.5 %
Track quality 99.9 %
Test CRC 484A986B
Copy CRC 484A986B
Accurately ripped (confidence 10) [348025FD]
Copy OK
Track 2
Filename X:\new rips\Manfredo Fest - 1987 - Braziliana\02 - Facing East.wav
Pre-gap length 0:00:02.46
Peak level 99.0 %
Track quality 100.0 %
Test CRC 14CD94B5
Copy CRC 14CD94B5
Accurately ripped (confidence 10) [EE54C6B4]
Copy OK
Track 3
Filename X:\new rips\Manfredo Fest - 1987 - Braziliana\03 - I Am Happy.wav
Pre-gap length 0:00:02.93
Peak level 96.6 %
Track quality 100.0 %
Test CRC A99D96DA
Copy CRC A99D96DA
Accurately ripped (confidence 10) [9EE8E6DF]
Copy OK
Track 4
Filename X:\new rips\Manfredo Fest - 1987 - Braziliana\04 - Cafй Colombo.wav
Pre-gap length 0:00:01.70
Peak level 100.0 %
Track quality 100.0 %
Test CRC A8B20A27
Copy CRC A8B20A27
Accurately ripped (confidence 10) [592566B9]
Copy OK
Track 5
Filename X:\new rips\Manfredo Fest - 1987 - Braziliana\05 - Brazillian Divertimento.wav
Pre-gap length 0:00:00.89
Peak level 99.7 %
Track quality 100.0 %
Test CRC F7606F65
Copy CRC F7606F65
Accurately ripped (confidence 10) [39F49860]
Copy OK
Track 6
Filename X:\new rips\Manfredo Fest - 1987 - Braziliana\06 - Leave it to the Sea.wav
Pre-gap length 0:00:03.60
Peak level 99.5 %
Track quality 99.9 %
Test CRC EAAFF07C
Copy CRC EAAFF07C
Accurately ripped (confidence 10) [E9B70BF2]
Copy OK
Track 7
Filename X:\new rips\Manfredo Fest - 1987 - Braziliana\07 - Song for My Mother.wav
Pre-gap length 0:00:05.40
Peak level 44.4 %
Track quality 99.9 %
Test CRC D9F1C492
Copy CRC D9F1C492
Accurately ripped (confidence 10) [642274C4]
Copy OK
Track 8
Filename X:\new rips\Manfredo Fest - 1987 - Braziliana\08 - Who Needs it.wav
Pre-gap length 0:00:05.57
Peak level 98.9 %
Track quality 100.0 %
Test CRC EA39B014
Copy CRC EA39B014
Accurately ripped (confidence 10) [20CDD2CE]
Copy OK
Track 9
Filename X:\new rips\Manfredo Fest - 1987 - Braziliana\09 - Once I Loved.wav
Pre-gap length 0:00:02.56
Peak level 86.5 %
Track quality 100.0 %
Test CRC ED85E378
Copy CRC ED85E378
Accurately ripped (confidence 10) [DDDC7516]
Copy OK
Track 10
Filename X:\new rips\Manfredo Fest - 1987 - Braziliana\10 - That's what She Says.wav
Pre-gap length 0:00:01.16
Peak level 98.3 %
Track quality 100.0 %
Test CRC 580C9F71
Copy CRC 580C9F71
Accurately ripped (confidence 9) [ED37A4CD]
Copy OK
Track 11
Filename X:\new rips\Manfredo Fest - 1987 - Braziliana\11 - Estamos Aн.wav
Pre-gap length 0:00:01.89
Peak level 99.8 %
Track quality 100.0 %
Test CRC FF842E69
Copy CRC FF842E69
Accurately ripped (confidence 10) [0C416EA5]
Copy OK
Track 12
Filename X:\new rips\Manfredo Fest - 1987 - Braziliana\12 - Braziliana.wav
Pre-gap length 0:00:02.89
Peak level 64.2 %
Track quality 100.0 %
Test CRC 8BE6867D
Copy CRC 8BE6867D
Accurately ripped (confidence 10) [365029CD]
Copy OK
Track 13
Filename X:\new rips\Manfredo Fest - 1987 - Braziliana\13 - Echoes from Bahia.wav
Pre-gap length 0:00:02.46
Peak level 96.9 %
Track quality 99.9 %
Test CRC 5A7C436F
Copy CRC 5A7C436F
Accurately ripped (confidence 11) [02060CC3]
Copy OK
All tracks accurately ripped
No errors occurred
End of status report
 
Содержание индексной карты (.CUE)
REM GENRE Jazz
REM DATE 1987
REM DISCID C00E230D
REM COMMENT "ExactAudioCopy v0.99pb5"
PERFORMER "Manfredo Fest"
TITLE "Braziliana"
FILE "01 - Brazilian Dorian Dream.wav" WAVE
TRACK 01 AUDIO
TITLE "Brazilian Dorian Dream"
PERFORMER "Manfredo Fest"
INDEX 01 00:00:00
TRACK 02 AUDIO
TITLE "Facing East"
PERFORMER "Manfredo Fest"
INDEX 00 04:34:60
FILE "02 - Facing East.wav" WAVE
INDEX 01 00:00:00
TRACK 03 AUDIO
TITLE "I Am Happy"
PERFORMER "Manfredo Fest"
INDEX 00 04:37:10
FILE "03 - I Am Happy.wav" WAVE
INDEX 01 00:00:00
TRACK 04 AUDIO
TITLE "Cafe Colombo"
PERFORMER "Manfredo Fest"
INDEX 00 04:11:57
FILE "04 - Cafe Colombo.wav" WAVE
INDEX 01 00:00:00
TRACK 05 AUDIO
TITLE "Brazilian Divertimento"
PERFORMER "Manfredo Fest"
INDEX 00 04:50:65
FILE "05 - Brazilian Divertimento.wav" WAVE
INDEX 01 00:00:00
TRACK 06 AUDIO
TITLE "Leave It to the Sea"
PERFORMER "Manfredo Fest"
INDEX 00 04:30:05
FILE "06 - Leave It to the Sea.wav" WAVE
INDEX 01 00:00:00
TRACK 07 AUDIO
TITLE "Song for My Mother"
PERFORMER "Manfredo Fest"
INDEX 00 02:55:45
FILE "07 - Song for My Mother.wav" WAVE
INDEX 01 00:00:00
TRACK 08 AUDIO
TITLE "Who Needs It"
PERFORMER "Manfredo Fest"
INDEX 00 03:04:25
FILE "08 - Who Needs It.wav" WAVE
INDEX 01 00:00:00
TRACK 09 AUDIO
TITLE "Once I Loved"
PERFORMER "Manfredo Fest"
INDEX 00 05:13:20
FILE "09 - Once I Loved.wav" WAVE
INDEX 01 00:00:00
TRACK 10 AUDIO
TITLE "That's What She Says"
PERFORMER "Manfredo Fest"
INDEX 00 04:54:33
FILE "10 - That's What She Says.wav" WAVE
INDEX 01 00:00:00
TRACK 11 AUDIO
TITLE "Estamos Ai'"
PERFORMER "Manfredo Fest"
INDEX 00 03:52:13
FILE "11 - Estamos Ai'.wav" WAVE
INDEX 01 00:00:00
TRACK 12 AUDIO
INDEX 00 03:46:08
TITLE "Braziliana"
PERFORMER "Manfredo Fest"
FILE "12 - Braziliana.wav" WAVE
INDEX 01 00:00:00
TRACK 13 AUDIO
TITLE "Echoes from Bahia"
PERFORMER "Manfredo Fest"
INDEX 00 09:00:48
FILE "13 - Echoes from Bahia.wav" WAVE
INDEX 01 00:00:00
 
Отчет CUETools
[CUETools log; Date: 28.01.2016 15:20:35; Version: 2.1.5]
[CTDB TOCID: 7iBnAh7EbDyaZ1zyUwpjhsyBVxA-] found.
Track | CTDB Status
1 | (27/27) Accurately ripped
2 | (27/27) Accurately ripped
3 | (27/27) Accurately ripped
4 | (27/27) Accurately ripped
5 | (27/27) Accurately ripped
6 | (27/27) Accurately ripped
7 | (27/27) Accurately ripped
8 | (27/27) Accurately ripped
9 | (27/27) Accurately ripped
10 | (27/27) Accurately ripped
11 | (27/27) Accurately ripped
12 | (27/27) Accurately ripped
13 | (26/27) Accurately ripped
[AccurateRip ID: 001bc02f-01162b67-c00e230d] found.
Track [ CRC | V2 ] Status
01 [348025fd|829656d4] (12+18/45) Accurately ripped
02 [ee54c6b4|9ec6f4cd] (12+18/46) Accurately ripped
03 [9ee8e6df|c17eb022] (12+18/46) Accurately ripped
04 [592566b9|192bc064] (12+18/46) Accurately ripped
05 [39f49860|9fd2a50d] (12+18/46) Accurately ripped
06 [e9b70bf2|f0564539] (12+18/46) Accurately ripped
07 [642274c4|b9febcc1] (12+18/46) Accurately ripped
08 [20cdd2ce|cea73d53] (12+18/44) Accurately ripped
09 [dddc7516|8a733a57] (12+19/46) Accurately ripped
10 [ed37a4cd|2d7701e6] (11+18/44) Accurately ripped
11 [0c416ea5|aea14b6c] (12+18/45) Accurately ripped
12 [365029cd|a4938772] (12+16/43) Accurately ripped
13 [02060cc3|b0d206eb] (13+17/45) Accurately ripped
Offsetted by -673:
01 [a2d1f4e8] (02/45) Accurately ripped
02 [4f94bef8] (02/46) Accurately ripped
03 [174753b7] (02/46) Accurately ripped
04 [d692774f] (02/46) Accurately ripped
05 [7934bdce] (02/46) Accurately ripped
06 [e71e3471] (02/46) Accurately ripped
07 [a7395cdd] (02/46) Accurately ripped
08 [d4dd1134] (02/44) Accurately ripped
09 [da68d6a2] (02/46) Accurately ripped
10 [d15499c1] (02/44) Accurately ripped
11 [0909a1b1] (02/45) Accurately ripped
12 [21aec5f1] (02/43) Accurately ripped
13 [bcc399c0] (02/45) Accurately ripped
Offsetted by -533:
01 [23cd535d] (04/45) Accurately ripped
02 [886686bd] (05/46) Accurately ripped
03 [d52a2e66] (05/46) Accurately ripped
04 [e40428bb] (05/46) Accurately ripped
05 [99674081] (05/46) Accurately ripped
06 [bdfe148a] (05/46) Accurately ripped
07 [58550ec1] (05/46) Accurately ripped
08 [dc28d81f] (04/44) Accurately ripped
09 [2a6bca95] (05/46) Accurately ripped
10 [a7945797] (05/44) Accurately ripped
11 [f945e728] (05/45) Accurately ripped
12 [46546448] (05/43) Accurately ripped
13 [b5808aa5] (05/45) Accurately ripped
Track Peak [ CRC32 ] [W/O NULL] [ LOG ]
-- 100,0 [C9EE4E25] [3FFB119F]
01 97,5 [484A986B] [00C0D296] CRC32
02 99,0 [14CD94B5] [76CA9A49] CRC32
03 96,6 [A99D96DA] [19493E95] CRC32
04 100,0 [A8B20A27] [711797DF] CRC32
05 99,7 [F7606F65] [3D9C012F] CRC32
06 99,5 [EAAFF07C] [B937A913] CRC32
07 44,4 [D9F1C492] [01FC532D] CRC32
08 98,9 [EA39B014] [1483375C] CRC32
09 86,5 [ED85E378] [6D9CE99A] CRC32
10 98,3 [580C9F71] [003EDEEF] CRC32
11 99,8 [FF842E69] [DC2E0D6C] CRC32
12 64,2 [8BE6867D] [0A25757F] CRC32
13 96,9 [5A7C436F] [AED248AE] CRC32
 
AllMusic Review by Ron Wynn
Pianst Manfredo Fest alternates between Afro-Latin material and Latin jazz originals on this 1987 session. Fest is a decent, sometimes engaging, accompanist and moderately accomplished soloist. Drummer Porthinho and percussionist Cyro Baptista add some tasty rhythms, while vocalist Roberta Davis and bassist Paul Socolow fill in competently.
20:30
301
Нет комментариев. Ваш будет первым!