Поиск

(World Fusion, Jazz-Funk) [CD] Sadao Watanabe - Sadao Watanabe (1972) - 2014 {Japan Jazz Collection 1000 Columbia-RCA Series, SICP 4066}, FLAC (tracks+.cue), lossless

(World Fusion, Jazz-Funk) [CD] Sadao Watanabe - Sadao Watanabe (1972) - 2014 {Japan Jazz Collection 1000 Columbia-RCA Series, SICP 4066}, FLAC (tracks+.cue), lossless
Треклист:
Sadao Watanabe - Sadao Watanabe (1972) Жанр: World Fusion, Jazz-Funk
Носитель: CD
Страна-производитель диска: Japan
Год издания: 2014
Издатель (лейбл): Columbia/Sony Music Japan
Номер по каталогу: SICP 4066
Аудиокодек: FLAC (*.flac)
Тип рипа: tracks+.cue
Битрейт аудио: lossless
Продолжительность: 48:29
Rip by ruskaval
Наличие сканов в содержимом раздачи: да
Треклист:
01. Sasa (1:46)
02. Mtoto (7:00)
03. Mtelenko (7:44)
04. Poromoko La Maji (7:45)
05. Kijiji (3:08)
06. Barabara (9:56)
07. Mombasa (3:13)
08. Upepo (1:53)
09. Umeme (6:03)
Personnel:
Sadao Watanabe - alto saxophone, sopranino, flute & african percussions
Hiroshi Fukumura - trombone
Fumio Itabashi - keyboards
Masayuki Takayanagi - guitar
Mitsuaki Furuno - bass
Arihide Kurata - drums
 
 
Лог создания рипа
Exact Audio Copy V1.1 from 23. June 2015
EAC extraction logfile from 22. July 2016, 19:06
Sadao Watanabe / Sadao Watanabe
Used drive : HL-DT-STDVDRAM GP50NW41 Adapter: 1 ID: 0
Read mode : Secure
Utilize accurate stream : Yes
Defeat audio cache : Yes
Make use of C2 pointers : No
Read offset correction : 6
Overread into Lead-In and Lead-Out : No
Fill up missing offset samples with silence : Yes
Delete leading and trailing silent blocks : No
Null samples used in CRC calculations : Yes
Used interface : Native Win32 interface for Win NT & 2000
Gap handling : Appended to previous track
Used output format : User Defined Encoder
Selected bitrate : 1024 kBit/s
Quality : High
Add ID3 tag : No
Command line compressor : C:\Program Files (x86)\FLAC Frontend\tools\flac.exe
Additional command line options : -8 -V -T "ARTIST=%artist%" -T "TITLE=%title%" -T "ALBUM=%albumtitle%" -T "DATE=%year%" -T "TRACKNUMBER=%tracknr%" -T "TOTALTRACKS=%numtracks%" -T "GENRE=%genre%" -T "ALBUMARTIST=%albumartist%" -T "ALBUM ARTIST=%albumartist%" -T "COMMENT=EAC Secure Mode, Test & Copy, AccurateRip, FLAC -8" %source%
TOC of the extracted CD
Track | Start | Length | Start sector | End sector
---------------------------------------------------------
1 | 0:00.00 | 1:46.20 | 0 | 7969
2 | 1:46.20 | 7:00.28 | 7970 | 39497
3 | 8:46.48 | 7:44.10 | 39498 | 74307
4 | 16:30.58 | 7:45.22 | 74308 | 109204
5 | 24:16.05 | 3:08.03 | 109205 | 123307
6 | 27:24.08 | 9:55.60 | 123308 | 167992
7 | 37:19.68 | 3:13.25 | 167993 | 182492
8 | 40:33.18 | 1:53.37 | 182493 | 191004
9 | 42:26.55 | 6:02.48 | 191005 | 218202
Track 1
Filename D:\_EAC\Sadao Watanabe - Sadao Watanabe (1972) [FLAC] {SICP 4066}\01 - Sasa.wav
Pre-gap length 0:00:02.00
Peak level 81.6 %
Extraction speed 2.2 X
Track quality 100.0 %
Test CRC AFDB924A
Copy CRC AFDB924A
Accurately ripped (confidence 2) [41D079E0] (AR v2)
Copy OK
Track 2
Filename D:\_EAC\Sadao Watanabe - Sadao Watanabe (1972) [FLAC] {SICP 4066}\02 - Mtoto.wav
Pre-gap length 0:00:02.42
Peak level 100.0 %
Extraction speed 3.1 X
Track quality 100.0 %
Test CRC 9FDE340C
Copy CRC 9FDE340C
Accurately ripped (confidence 2) [A6A6C4C2] (AR v2)
Copy OK
Track 3
Filename D:\_EAC\Sadao Watanabe - Sadao Watanabe (1972) [FLAC] {SICP 4066}\03 - Mtelenko.wav
Pre-gap length 0:00:02.08
Peak level 98.6 %
Extraction speed 3.2 X
Track quality 99.9 %
Test CRC CB9518DF
Copy CRC CB9518DF
Accurately ripped (confidence 2) [6923EA6A] (AR v2)
Copy OK
Track 4
Filename D:\_EAC\Sadao Watanabe - Sadao Watanabe (1972) [FLAC] {SICP 4066}\04 - Poromoko La Maji.wav
Pre-gap length 0:00:02.53
Peak level 100.0 %
Extraction speed 4.1 X
Track quality 100.0 %
Test CRC 92FF869E
Copy CRC 92FF869E
Accurately ripped (confidence 2) [4A520DAC] (AR v2)
Copy OK
Track 5
Filename D:\_EAC\Sadao Watanabe - Sadao Watanabe (1972) [FLAC] {SICP 4066}\05 - Kijiji.wav
Pre-gap length 0:00:01.55
Peak level 100.0 %
Extraction speed 3.9 X
Track quality 100.0 %
Test CRC 610837A2
Copy CRC 610837A2
Accurately ripped (confidence 2) [293C83BD] (AR v2)
Copy OK
Track 6
Filename D:\_EAC\Sadao Watanabe - Sadao Watanabe (1972) [FLAC] {SICP 4066}\06 - Barabara.wav
Pre-gap length 0:00:02.73
Peak level 100.0 %
Extraction speed 4.8 X
Track quality 100.0 %
Test CRC 1521EEF8
Copy CRC 1521EEF8
Accurately ripped (confidence 2) [99890318] (AR v2)
Copy OK
Track 7
Filename D:\_EAC\Sadao Watanabe - Sadao Watanabe (1972) [FLAC] {SICP 4066}\07 - Mombasa.wav
Pre-gap length 0:00:01.70
Peak level 100.0 %
Extraction speed 4.5 X
Track quality 100.0 %
Test CRC A028EF49
Copy CRC A028EF49
Accurately ripped (confidence 2) [646A1AB1] (AR v2)
Copy OK
Track 8
Filename D:\_EAC\Sadao Watanabe - Sadao Watanabe (1972) [FLAC] {SICP 4066}\08 - Upepo.wav
Pre-gap length 0:00:02.48
Peak level 88.2 %
Extraction speed 2.8 X
Track quality 99.9 %
Test CRC 41AF6BF7
Copy CRC 41AF6BF7
Accurately ripped (confidence 2) [3C7C6838] (AR v2)
Copy OK
Track 9
Filename D:\_EAC\Sadao Watanabe - Sadao Watanabe (1972) [FLAC] {SICP 4066}\09 - Umeme.wav
Pre-gap length 0:00:01.65
Peak level 98.7 %
Extraction speed 5.2 X
Track quality 100.0 %
Test CRC B6F63A33
Copy CRC B6F63A33
Accurately ripped (confidence 2) [9B306A88] (AR v2)
Copy OK
All tracks accurately ripped
No errors occurred
End of status report
==== Log checksum AD752FD8E745C140C8F05907E92728D5014FAFB9652E001C53A9B83CEC278CC5 ====
 
Содержание индексной карты (.CUE)
REM GENRE Jazz
REM DATE 1972
REM DISCID 7B0B5D09
REM COMMENT "ExactAudioCopy v1.1"
PERFORMER "Sadao Watanabe"
TITLE "Sadao Watanabe"
FILE "01 - Sasa.wav" WAVE
TRACK 01 AUDIO
TITLE "Sasa"
PERFORMER "Sadao Watanabe"
INDEX 01 00:00:00
TRACK 02 AUDIO
TITLE "Mtoto"
PERFORMER "Sadao Watanabe"
INDEX 00 01:43:53
FILE "02 - Mtoto.wav" WAVE
INDEX 01 00:00:00
TRACK 03 AUDIO
TITLE "Mtelenko"
PERFORMER "Sadao Watanabe"
INDEX 00 06:58:20
FILE "03 - Mtelenko.wav" WAVE
INDEX 01 00:00:00
TRACK 04 AUDIO
TITLE "Poromoko La Maji"
PERFORMER "Sadao Watanabe"
INDEX 00 07:41:32
FILE "04 - Poromoko La Maji.wav" WAVE
INDEX 01 00:00:00
TRACK 05 AUDIO
TITLE "Kijiji"
PERFORMER "Sadao Watanabe"
INDEX 00 07:43:42
FILE "05 - Kijiji.wav" WAVE
INDEX 01 00:00:00
TRACK 06 AUDIO
TITLE "Barabara"
PERFORMER "Sadao Watanabe"
INDEX 00 03:05:05
FILE "06 - Barabara.wav" WAVE
INDEX 01 00:00:00
TRACK 07 AUDIO
TITLE "Mombasa"
PERFORMER "Sadao Watanabe"
INDEX 00 09:53:65
FILE "07 - Mombasa.wav" WAVE
INDEX 01 00:00:00
TRACK 08 AUDIO
TITLE "Upepo"
PERFORMER "Sadao Watanabe"
INDEX 00 03:10:52
FILE "08 - Upepo.wav" WAVE
INDEX 01 00:00:00
TRACK 09 AUDIO
TITLE "Umeme"
PERFORMER "Sadao Watanabe"
INDEX 00 01:51:47
FILE "09 - Umeme.wav" WAVE
INDEX 01 00:00:00
21:51
233
Нет комментариев. Ваш будет первым!