Поиск

(Salsa, Latin Jazz, Cha-Cha) [CD] Tito Puente And His Concert Orchestra - El Timbal - 1999, FLAC (tracks+.cue), lossless

(Salsa, Latin Jazz, Cha-Cha) [CD] Tito Puente And His Concert Orchestra - El Timbal - 1999, FLAC (tracks+.cue), lossless
Tito Puente And His Concert Orchestra / El Timbal
Жанр: Salsa, Latin Jazz, Cha-Cha
Носитель: CD
Год издания: 1999
Издатель (лейбл): Greycliff
Номер по каталогу: 900006
Аудиокодек: FLAC (*.flac)
Тип рипа: tracks+.cue
Битрейт аудио: lossless
Продолжительность: 01:15
Источник (релизер): demonoid
Наличие сканов в содержимом раздачи: да
Треклист:
01. Mambo La Roca
02. Lo Dicen Todos
03. Babaratiri
04. A Burujon Punao
05. Babalagua
06. Mambo Macoco
07. Mambolero
08. Cuban Mambo
09. Cuban Cutie
10. Mi Guaguanco
11. El Timbal
12. Abaniquito
13. Baila Simon
14. Quiero Mi Tambo
15. Mambo En Blues
16. Ta Bueno Pa Baila
17. Aprieta El Pollo
18. Guaguanco En Tropicana
19. Cuero Na 'Ma
20. Preparen Candela
21. Baile Mi Mambo
22. Nuevo Mambo
23. Pito Joe
24. Plaza Stomp
25. Donkey Serenade
 
Лог создания рипа
Exact Audio Copy V1.0 beta 4 from 7. December 2014
EAC extraction logfile from 5. June 2016, 13:09
Tito Puente And His Orchestra / El Timbal
Used drive : TSSTcorpCDDVDW SH-224DB Adapter: 1 ID: 0
Read mode : Secure
Utilize accurate stream : Yes
Defeat audio cache : Yes
Make use of C2 pointers : No
Read offset correction : 6
Overread into Lead-In and Lead-Out : No
Fill up missing offset samples with silence : Yes
Delete leading and trailing silent blocks : No
Null samples used in CRC calculations : Yes
Used interface : Native Win32 interface for Win NT & 2000
Gap handling : Appended to previous track
Used output format : User Defined Encoder
Selected bitrate : 896 kBit/s
Quality : High
Add ID3 tag : No
Command line compressor : C:\Program Files\Exact Audio Copy\Flac\flac.exe
Additional command line options : -6 -V -T "ARTIST=%artist%" -T "TITLE=%title%" -T "ALBUM=%albumtitle%" -T "DATE=%year%" -T "TRACKNUMBER=%tracknr%" -T "GENRE=%genre%" -T "COMMENT=%comment%" %source% -o %dest%
TOC of the extracted CD
Track | Start | Length | Start sector | End sector
---------------------------------------------------------
1 | 0:00.00 | 2:36.72 | 0 | 11771
2 | 2:36.72 | 3:18.43 | 11772 | 26664
3 | 5:55.40 | 3:03.67 | 26665 | 40456
4 | 8:59.32 | 3:13.40 | 40457 | 54971
5 | 12:12.72 | 2:51.68 | 54972 | 67864
6 | 15:04.65 | 2:57.22 | 67865 | 81161
7 | 18:02.12 | 2:51.53 | 81162 | 94039
8 | 20:53.65 | 3:09.02 | 94040 | 108216
9 | 24:02.67 | 2:57.20 | 108217 | 121511
10 | 27:00.12 | 2:49.33 | 121512 | 134219
11 | 29:49.45 | 3:07.17 | 134220 | 148261
12 | 32:56.62 | 2:49.35 | 148262 | 160971
13 | 35:46.22 | 3:02.15 | 160972 | 174636
14 | 38:48.37 | 3:03.50 | 174637 | 188411
15 | 41:52.12 | 3:17.00 | 188412 | 203186
16 | 45:09.12 | 2:46.68 | 203187 | 215704
17 | 47:56.05 | 3:18.65 | 215705 | 230619
18 | 51:14.70 | 3:31.22 | 230620 | 246466
19 | 54:46.17 | 3:06.23 | 246467 | 260439
20 | 57:52.40 | 2:54.67 | 260440 | 273556
21 | 60:47.32 | 3:06.13 | 273557 | 287519
22 | 63:53.45 | 2:40.22 | 287520 | 299541
23 | 66:33.67 | 2:35.38 | 299542 | 311204
24 | 69:09.30 | 2:53.70 | 311205 | 324249
25 | 72:03.25 | 3:15.70 | 324250 | 338944
Track 1
Filename C:\New Folder\01 - Mambo La Roca.wav
Pre-gap length 0:00:02.00
Peak level 93.8 %
Extraction speed 1.8 X
Track quality 100.0 %
Test CRC 4FB0EBE4
Copy CRC 4FB0EBE4
Accurately ripped (confidence 1) [421DC216] (AR v1)
Copy OK
Track 2
Filename C:\New Folder\02 - Lo Dicen Todos.wav
Peak level 81.3 %
Extraction speed 2.0 X
Track quality 100.0 %
Test CRC 2EE2F0FD
Copy CRC 2EE2F0FD
Accurately ripped (confidence 1) [F35257B4] (AR v1)
Copy OK
Track 3
Filename C:\New Folder\03 - Babaratiri.wav
Peak level 71.2 %
Extraction speed 1.7 X
Track quality 99.9 %
Test CRC E8E11E44
Copy CRC E8E11E44
Accurately ripped (confidence 1) [2708FAE4] (AR v1)
Copy OK
Track 4
Filename C:\New Folder\04 - A Burujon Punao.wav
Peak level 91.0 %
Extraction speed 1.8 X
Track quality 99.9 %
Test CRC 568A0830
Copy CRC 568A0830
Accurately ripped (confidence 1) [1C0B66E2] (AR v1)
Copy OK
Track 5
Filename C:\New Folder\05 - Babalagua.wav
Peak level 74.0 %
Extraction speed 2.3 X
Track quality 100.0 %
Test CRC E4CC9739
Copy CRC E4CC9739
Accurately ripped (confidence 1) [BE0F49FE] (AR v1)
Copy OK
Track 6
Filename C:\New Folder\06 - Mambo Macoco.wav
Peak level 86.7 %
Extraction speed 1.9 X
Track quality 99.9 %
Test CRC E67215F1
Copy CRC E67215F1
Accurately ripped (confidence 1) [A354F11C] (AR v1)
Copy OK
Track 7
Filename C:\New Folder\07 - Mambolero.wav
Peak level 79.6 %
Extraction speed 2.5 X
Track quality 100.0 %
Test CRC 20E338D7
Copy CRC 20E338D7
Accurately ripped (confidence 1) [E226B162] (AR v1)
Copy OK
Track 8
Filename C:\New Folder\08 - Cuban Mambo.wav
Peak level 71.8 %
Extraction speed 2.6 X
Track quality 100.0 %
Test CRC 3A792D6E
Copy CRC 3A792D6E
Accurately ripped (confidence 1) [534897DB] (AR v1)
Copy OK
Track 9
Filename C:\New Folder\09 - Cuban Cutie.wav
Peak level 56.5 %
Extraction speed 2.0 X
Track quality 99.9 %
Test CRC BCF07745
Copy CRC BCF07745
Accurately ripped (confidence 1) [739157D2] (AR v1)
Copy OK
Track 10
Filename C:\New Folder\10 - Mi Guaguanco.wav
Peak level 79.0 %
Extraction speed 2.8 X
Track quality 100.0 %
Test CRC 56D75E26
Copy CRC 56D75E26
Accurately ripped (confidence 1) [59C18C55] (AR v1)
Copy OK
Track 11
Filename C:\New Folder\11 - El Timbal.wav
Peak level 83.0 %
Extraction speed 2.2 X
Track quality 99.9 %
Test CRC 1714C1A2
Copy CRC 1714C1A2
Accurately ripped (confidence 1) [A5A53F2A] (AR v1)
Copy OK
Track 12
Filename C:\New Folder\12 - Abaniquito.wav
Peak level 72.6 %
Extraction speed 2.9 X
Track quality 100.0 %
Test CRC 0CA92BD9
Copy CRC 0CA92BD9
Accurately ripped (confidence 1) [F1C569C0] (AR v1)
Copy OK
Track 13
Filename C:\New Folder\13 - Baila Simon.wav
Peak level 81.1 %
Extraction speed 3.0 X
Track quality 100.0 %
Test CRC 1C98AC69
Copy CRC 1C98AC69
Accurately ripped (confidence 1) [AF2F756D] (AR v1)
Copy OK
Track 14
Filename C:\New Folder\14 - Quiero Mi Tambo.wav
Peak level 65.4 %
Extraction speed 3.1 X
Track quality 100.0 %
Test CRC 942F3F39
Copy CRC 942F3F39
Accurately ripped (confidence 1) [693B741D] (AR v1)
Copy OK
Track 15
Filename C:\New Folder\15 - Mambo En Blues.wav
Peak level 55.3 %
Extraction speed 3.2 X
Track quality 100.0 %
Test CRC D7BAC6F8
Copy CRC D7BAC6F8
Accurately ripped (confidence 1) [70895782] (AR v1)
Copy OK
Track 16
Filename C:\New Folder\16 - Ta Bueno Pa Baila.wav
Peak level 68.4 %
Extraction speed 3.2 X
Track quality 100.0 %
Test CRC 751F273A
Copy CRC 751F273A
Accurately ripped (confidence 1) [8C3B7783] (AR v1)
Copy OK
Track 17
Filename C:\New Folder\17 - Aprieta El Pollo.wav
Peak level 59.7 %
Extraction speed 2.5 X
Track quality 99.9 %
Test CRC E3C03B94
Copy CRC E3C03B94
Accurately ripped (confidence 1) [DB71FBA2] (AR v1)
Copy OK
Track 18
Filename C:\New Folder\18 - Guaguanco En Tropicana.wav
Peak level 56.2 %
Extraction speed 3.5 X
Track quality 100.0 %
Test CRC AE40B185
Copy CRC AE40B185
Accurately ripped (confidence 1) [5B0617F8] (AR v1)
Copy OK
Track 19
Filename C:\New Folder\19 - Cuero Na 'Ma.wav
Peak level 70.9 %
Extraction speed 3.5 X
Track quality 100.0 %
Test CRC C32C9638
Copy CRC C32C9638
Accurately ripped (confidence 1) [A287E1D3] (AR v1)
Copy OK
Track 20
Filename C:\New Folder\20 - Preparen Candela.wav
Peak level 78.1 %
Extraction speed 3.5 X
Track quality 100.0 %
Test CRC 7ED51E73
Copy CRC 7ED51E73
Accurately ripped (confidence 1) [21BE99C4] (AR v1)
Copy OK
Track 21
Filename C:\New Folder\21 - Baile Mi Mambo.wav
Pre-gap length 0:00:02.00
Peak level 87.7 %
Extraction speed 3.6 X
Track quality 100.0 %
Test CRC BB89FD49
Copy CRC BB89FD49
Accurately ripped (confidence 1) [C9905073] (AR v1)
Copy OK
Track 22
Filename C:\New Folder\22 - Nuevo Mambo.wav
Peak level 91.2 %
Extraction speed 3.6 X
Track quality 100.0 %
Test CRC F55B3D7F
Copy CRC F55B3D7F
Accurately ripped (confidence 1) [47B2B018] (AR v1)
Copy OK
Track 23
Filename C:\New Folder\23 - Pito Joe.wav
Peak level 94.4 %
Extraction speed 3.6 X
Track quality 100.0 %
Test CRC 11E9E51B
Copy CRC 11E9E51B
Accurately ripped (confidence 1) [00F06F13] (AR v1)
Copy OK
Track 24
Filename C:\New Folder\24 - Plaza Stomp.wav
Peak level 74.6 %
Extraction speed 2.6 X
Track quality 99.9 %
Test CRC EB136C0F
Copy CRC EB136C0F
Accurately ripped (confidence 1) [57D67770] (AR v1)
Copy OK
Track 25
Filename C:\New Folder\25 - Donkey Serenade.wav
Peak level 71.6 %
Extraction speed 3.9 X
Track quality 100.0 %
Test CRC 8FAFB68E
Copy CRC 8FAFB68E
Accurately ripped (confidence 1) [F6DD7A0F] (AR v1)
Copy OK
All tracks accurately ripped
No errors occurred
End of status report
---- CUETools DB Plugin V2.1.4
[CTDB TOCID: 3zU0aTfnCHVP4i_l.n1i59xN6Z0-] found
Submit result: 3zU0aTfnCHVP4i_l.n1i59xN6Z0- has been uploaded
Track | CTDB Status
1 | (1/1) Accurately ripped
2 | (1/1) Accurately ripped
3 | (1/1) Accurately ripped
4 | (1/1) Accurately ripped
5 | (1/1) Accurately ripped
6 | (1/1) Accurately ripped
7 | (1/1) Accurately ripped
8 | (1/1) Accurately ripped
9 | (1/1) Accurately ripped
10 | (1/1) Accurately ripped
11 | (1/1) Accurately ripped
12 | (1/1) Accurately ripped
13 | (1/1) Accurately ripped
14 | (1/1) Accurately ripped
15 | (1/1) Differs in 5 samples @03:10:59
16 | (1/1) Accurately ripped
17 | (1/1) Accurately ripped
18 | (1/1) Accurately ripped
19 | (1/1) Accurately ripped
20 | (1/1) Accurately ripped
21 | (1/1) Accurately ripped
22 | (1/1) Accurately ripped
23 | (1/1) Accurately ripped
24 | (1/1) Accurately ripped
25 | (1/1) Accurately ripped
If you are sure that your rip contains errors, you can use CUETools to repair it.
==== Log checksum A576CA6C26E180730751522263E15DB2C5E8FFC12A25E9CECC97B23301CB55DC ====
 
Содержание индексной карты (.CUE)
REM GENRE Latin
REM DATE 2002
REM DISCID 7E11A719
REM COMMENT "ExactAudioCopy v1.0b4"
PERFORMER "Tito Puente And His Orchestra"
TITLE "El Timbal"
FILE "01 - Mambo La Roca.wav" WAVE
TRACK 01 AUDIO
TITLE "Mambo La Roca"
PERFORMER "Tito Puente And His Orchestra"
INDEX 01 00:00:00
FILE "02 - Lo Dicen Todos.wav" WAVE
TRACK 02 AUDIO
TITLE "Lo Dicen Todos"
PERFORMER "Tito Puente And His Orchestra"
INDEX 01 00:00:00
FILE "03 - Babaratiri.wav" WAVE
TRACK 03 AUDIO
TITLE "Babaratiri"
PERFORMER "Tito Puente And His Orchestra"
INDEX 01 00:00:00
FILE "04 - A Burujon Punao.wav" WAVE
TRACK 04 AUDIO
TITLE "A Burujon Punao"
PERFORMER "Tito Puente And His Orchestra"
INDEX 01 00:00:00
FILE "05 - Babalagua.wav" WAVE
TRACK 05 AUDIO
TITLE "Babalagua"
PERFORMER "Tito Puente And His Orchestra"
INDEX 01 00:00:00
FILE "06 - Mambo Macoco.wav" WAVE
TRACK 06 AUDIO
TITLE "Mambo Macoco"
PERFORMER "Tito Puente And His Orchestra"
INDEX 01 00:00:00
FILE "07 - Mambolero.wav" WAVE
TRACK 07 AUDIO
TITLE "Mambolero"
PERFORMER "Tito Puente And His Orchestra"
INDEX 01 00:00:00
FILE "08 - Cuban Mambo.wav" WAVE
TRACK 08 AUDIO
TITLE "Cuban Mambo"
PERFORMER "Tito Puente And His Orchestra"
INDEX 01 00:00:00
FILE "09 - Cuban Cutie.wav" WAVE
TRACK 09 AUDIO
TITLE "Cuban Cutie"
PERFORMER "Tito Puente And His Orchestra"
INDEX 01 00:00:00
FILE "10 - Mi Guaguanco.wav" WAVE
TRACK 10 AUDIO
TITLE "Mi Guaguanco"
PERFORMER "Tito Puente And His Orchestra"
INDEX 01 00:00:00
FILE "11 - El Timbal.wav" WAVE
TRACK 11 AUDIO
TITLE "El Timbal"
PERFORMER "Tito Puente And His Orchestra"
INDEX 01 00:00:00
FILE "12 - Abaniquito.wav" WAVE
TRACK 12 AUDIO
TITLE "Abaniquito"
PERFORMER "Tito Puente And His Orchestra"
INDEX 01 00:00:00
FILE "13 - Baila Simon.wav" WAVE
TRACK 13 AUDIO
TITLE "Baila Simon"
PERFORMER "Tito Puente And His Orchestra"
INDEX 01 00:00:00
FILE "14 - Quiero Mi Tambo.wav" WAVE
TRACK 14 AUDIO
TITLE "Quiero Mi Tambo"
PERFORMER "Tito Puente And His Orchestra"
INDEX 01 00:00:00
FILE "15 - Mambo En Blues.wav" WAVE
TRACK 15 AUDIO
TITLE "Mambo En Blues"
PERFORMER "Tito Puente And His Orchestra"
INDEX 01 00:00:00
FILE "16 - Ta Bueno Pa Baila.wav" WAVE
TRACK 16 AUDIO
TITLE "Ta Bueno Pa Baila"
PERFORMER "Tito Puente And His Orchestra"
INDEX 01 00:00:00
FILE "17 - Aprieta El Pollo.wav" WAVE
TRACK 17 AUDIO
TITLE "Aprieta El Pollo"
PERFORMER "Tito Puente And His Orchestra"
INDEX 01 00:00:00
FILE "18 - Guaguanco En Tropicana.wav" WAVE
TRACK 18 AUDIO
TITLE "Guaguanco En Tropicana"
PERFORMER "Tito Puente And His Orchestra"
INDEX 01 00:00:00
FILE "19 - Cuero Na 'Ma.wav" WAVE
TRACK 19 AUDIO
TITLE "Cuero Na 'Ma"
PERFORMER "Tito Puente And His Orchestra"
INDEX 01 00:00:00
FILE "20 - Preparen Candela.wav" WAVE
TRACK 20 AUDIO
TITLE "Preparen Candela"
PERFORMER "Tito Puente And His Orchestra"
INDEX 01 00:00:00
TRACK 21 AUDIO
TITLE "Baile Mi Mambo"
PERFORMER "Tito Puente And His Orchestra"
FLAGS PRE
INDEX 00 02:52:67
FILE "21 - Baile Mi Mambo.wav" WAVE
INDEX 01 00:00:00
FILE "22 - Nuevo Mambo.wav" WAVE
TRACK 22 AUDIO
TITLE "Nuevo Mambo"
PERFORMER "Tito Puente And His Orchestra"
FLAGS PRE
INDEX 01 00:00:00
FILE "23 - Pito Joe.wav" WAVE
TRACK 23 AUDIO
TITLE "Pito Joe"
PERFORMER "Tito Puente And His Orchestra"
FLAGS PRE
INDEX 01 00:00:00
FILE "24 - Plaza Stomp.wav" WAVE
TRACK 24 AUDIO
TITLE "Plaza Stomp"
PERFORMER "Tito Puente And His Orchestra"
FLAGS PRE
INDEX 01 00:00:00
FILE "25 - Donkey Serenade.wav" WAVE
TRACK 25 AUDIO
TITLE "Donkey Serenade"
PERFORMER "Tito Puente And His Orchestra"
FLAGS PRE
INDEX 01 00:00:00
 
Об альбоме (сборнике)
Recorded in New York City, 1949-1951.
 
Состав
Leader, Vibraphone, Timbales - Tito Puente
Bass - Amado Visoso
Piano - Gil Lopez, Luis Varona
Saxophone - Edward Grimm, Irving Butler, Joseph Herde, Sol Rabinowitz
Trumpet - Frank La Pinto, Gene Pappetti, Jimmy Frisaura
Bongos - Manny Oquendo
Congas - Frankie Colon, Mongo Santamaria
Vocals, Maracas - Bobby Escoto (tracks: 5, 13, 14), Vicentico Valdes (tracks: 1 to 4, 6 to 12, 15 to 20)
21:51
237
Нет комментариев. Ваш будет первым!