Поиск

(World Fusion, Afrobeat, Dub) [CD] Fofoulah - Fofoulah - 2014, FLAC (tracks+.cue), lossless

(World Fusion, Afrobeat, Dub) [CD] Fofoulah - Fofoulah - 2014, FLAC (tracks+.cue), lossless
Треклист:
Fofoulah / Fofoulah
Жанр: World Fusion, Afrobeat, Dub
Носитель: CD
Страна-производитель диска (релиза): UK & Europe
Год издания: 2014
Издатель (лейбл): Glitterbeat
Номер по каталогу: GBCD 017
Страна исполнителя (группы): UK, Senegal, Gambia
Аудиокодек: FLAC (*.flac)
Тип рипа: tracks+.cue
Битрейт аудио: lossless
Продолжительность: 00:39:59
Источник (релизер): Собственныи Диск (Poupsicot88)
Наличие сканов в содержимом раздачи: нет
Треклист:
01. No troubles (Kelinte)
02. Hook up (Nango dereh)
03. Make good (Soumala)
04. Don't let your mind unravel, safe travels
05. The clean up (Rahas)
06. Blest (Issaâdiyen)
07. Fighting chance
08. Reality rek
09. Last orders
 
Лог создания рипа
Exact Audio Copy V1.1 from 23. June 2015
EAC extraction logfile from 1. August 2016, 14:47
Fofoulah / Fofoulah
Used drive : PLEXTOR DVDR PX-891SA Adapter: 1 ID: 0
Read mode : Secure
Utilize accurate stream : Yes
Defeat audio cache : Yes
Make use of C2 pointers : No
Read offset correction : 6
Overread into Lead-In and Lead-Out : No
Fill up missing offset samples with silence : Yes
Delete leading and trailing silent blocks : No
Null samples used in CRC calculations : Yes
Used interface : Native Win32 interface for Win NT & 2000
Gap handling : Appended to previous track
Used output format : User Defined Encoder
Selected bitrate : 896 kBit/s
Quality : High
Add ID3 tag : No
Command line compressor : C:\Program Files (x86)\Exact Audio Copy\FLAC\FLAC.EXE
Additional command line options : -6 -V -T "ARTIST=%artist%" -T "TITLE=%title%" -T "ALBUM=%albumtitle%" -T "DATE=%year%" -T "TRACKNUMBER=%tracknr%" -T "GENRE=%genre%" -T "COMMENT=%comment%" -T "BAND=%albuminterpret%" -T "ALBUMARTIST=%albuminterpret%" -T "COMPOSER=%composer%" %haslyrics%--tag-from-file=LYRICS="%lyricsfile%"%haslyrics% -T "DISCNUMBER=%cdnumber%" -T "TOTALDISCS=%totalcds%" -T "TOTALTRACKS=%numtracks%" %hascover%--picture="%coverfile%"%hascover% %source% -o %dest%
TOC of the extracted CD
Track | Start | Length | Start sector | End sector
---------------------------------------------------------
1 | 0:00.00 | 6:44.58 | 0 | 30357
2 | 6:44.58 | 4:56.73 | 30358 | 52630
3 | 11:41.56 | 4:35.20 | 52631 | 73275
4 | 16:17.01 | 4:44.44 | 73276 | 94619
5 | 21:01.45 | 5:28.32 | 94620 | 119251
6 | 26:30.02 | 3:34.68 | 119252 | 135369
7 | 30:04.70 | 1:47.47 | 135370 | 143441
8 | 31:52.42 | 7:38.27 | 143442 | 177818
9 | 39:30.69 | 0:29.02 | 177819 | 179995
Track 1
Filename D:\Torrents\Fofoulah\Fofoulah (2014)\01. No troubles (Kelinte).wav
Pre-gap length 0:00:02.00
Peak level 100.0 %
Extraction speed 5.8 X
Track quality 100.0 %
Test CRC 04E1E083
Copy CRC 04E1E083
Accurately ripped (confidence 2) [0EA189BB] (AR v2)
Copy OK
Track 2
Filename D:\Torrents\Fofoulah\Fofoulah (2014)\02. Hook up (Nango dereh).wav
Peak level 100.0 %
Extraction speed 6.5 X
Track quality 100.0 %
Test CRC 220E21A2
Copy CRC 220E21A2
Accurately ripped (confidence 2) [0F616797] (AR v2)
Copy OK
Track 3
Filename D:\Torrents\Fofoulah\Fofoulah (2014)\03. Make good (Soumala).wav
Peak level 100.0 %
Extraction speed 7.0 X
Track quality 100.0 %
Test CRC 204782C7
Copy CRC 204782C7
Accurately ripped (confidence 2) [AC5A341B] (AR v2)
Copy OK
Track 4
Filename D:\Torrents\Fofoulah\Fofoulah (2014)\04. Don't let your mind unravel, safe travels.wav
Peak level 100.0 %
Extraction speed 7.6 X
Track quality 100.0 %
Test CRC 6DB133B2
Copy CRC 6DB133B2
Accurately ripped (confidence 2) [6196C69C] (AR v2)
Copy OK
Track 5
Filename D:\Torrents\Fofoulah\Fofoulah (2014)\05. The clean up (Rahas).wav
Peak level 100.0 %
Extraction speed 8.2 X
Track quality 100.0 %
Test CRC C32C2521
Copy CRC C32C2521
Accurately ripped (confidence 2) [34D54D8F] (AR v2)
Copy OK
Track 6
Filename D:\Torrents\Fofoulah\Fofoulah (2014)\06. Blest (Issaâdiyen).wav
Peak level 100.0 %
Extraction speed 8.2 X
Track quality 100.0 %
Test CRC ED255C20
Copy CRC ED255C20
Accurately ripped (confidence 2) [A66EE87A] (AR v2)
Copy OK
Track 7
Filename D:\Torrents\Fofoulah\Fofoulah (2014)\07. Fighting chance.wav
Peak level 100.0 %
Extraction speed 7.3 X
Track quality 100.0 %
Test CRC 4BFE96A6
Copy CRC 4BFE96A6
Accurately ripped (confidence 2) [F7757FF9] (AR v2)
Copy OK
Track 8
Filename D:\Torrents\Fofoulah\Fofoulah (2014)\08. Reality rek.wav
Peak level 100.0 %
Extraction speed 9.7 X
Track quality 100.0 %
Test CRC 156229C4
Copy CRC 156229C4
Accurately ripped (confidence 2) [4D12476C] (AR v2)
Copy OK
Track 9
Filename D:\Torrents\Fofoulah\Fofoulah (2014)\09. Last orders.wav
Peak level 85.0 %
Extraction speed 4.6 X
Track quality 100.0 %
Test CRC 6FA287AB
Copy CRC 6FA287AB
Accurately ripped (confidence 2) [20EB7FB6] (AR v2)
Copy OK
All tracks accurately ripped
No errors occurred
End of status report
==== Log checksum 13B356655F1742120954F9CE35D095EA31C16CBE53EC283DAA990DB97BD579A1 ====
 
Содержание индексной карты (.CUE)
REM GENRE "Fusion, Afrobeat, Dub"
REM DATE 2014
REM DISCID 78095F09
REM COMMENT "ExactAudioCopy v1.1"
PERFORMER "Fofoulah"
TITLE "Fofoulah"
FILE "01. No troubles (Kelinte).wav" WAVE
TRACK 01 AUDIO
TITLE "No troubles (Kelinte)"
PERFORMER "Fofoulah"
ISRC DEE351311520
INDEX 01 00:00:00
FILE "02. Hook up (Nango dereh).wav" WAVE
TRACK 02 AUDIO
TITLE "Hook up (Nango dereh)"
PERFORMER "Fofoulah"
ISRC DEE351311521
INDEX 01 00:00:00
FILE "03. Make good (Soumala).wav" WAVE
TRACK 03 AUDIO
TITLE "Make good (Soumala)"
PERFORMER "Fofoulah"
ISRC DEE351311522
INDEX 01 00:00:00
FILE "04. Don't let your mind unravel, safe travels.wav" WAVE
TRACK 04 AUDIO
TITLE "Don't let your mind unravel, safe travels"
PERFORMER "Fofoulah"
ISRC DEE351311523
INDEX 01 00:00:00
FILE "05. The clean up (Rahas).wav" WAVE
TRACK 05 AUDIO
TITLE "The clean up (Rahas)"
PERFORMER "Fofoulah"
ISRC DEE351311524
INDEX 01 00:00:00
FILE "06. Blest (Issaâdiyen).wav" WAVE
TRACK 06 AUDIO
TITLE "Blest (Issaâdiyen)"
PERFORMER "Fofoulah"
ISRC DEE351311525
INDEX 01 00:00:00
FILE "07. Fighting chance.wav" WAVE
TRACK 07 AUDIO
TITLE "Fighting chance"
PERFORMER "Fofoulah"
ISRC DEE351311526
INDEX 01 00:00:00
FILE "08. Reality rek.wav" WAVE
TRACK 08 AUDIO
TITLE "Reality rek"
PERFORMER "Fofoulah"
ISRC DEE351311527
INDEX 01 00:00:00
FILE "09. Last orders.wav" WAVE
TRACK 09 AUDIO
TITLE "Last orders"
PERFORMER "Fofoulah"
ISRC DEE351311528
INDEX 01 00:00:00
 
Об исполнителе (группе)
 
Об альбоме (сборнике)
21:52
244
Нет комментариев. Ваш будет первым!