Поиск

(Afrobeat, Jazz Funk, Ethiopian, World) [CD] VA - Beyond Addis: Contemporary Jazz & Funk Inspired By Ethiopian Sounds From The 70s - 2014, FLAC (tracks+.cue), lossless

Треклист:
Beyond Addis: Contemporary Jazz & Funk Inspired By Ethiopian Sounds From The 70s
Жанр: Afrobeat, Jazz Funk, Ethiopian, World
Носитель: CD
Страна-производитель диска (релиза): Germany
Год издания: 2014
Издатель (лейбл): Trikont
Номер по каталогу: US-0452
Аудиокодек: FLAC (*.flac)
Тип рипа: tracks+.cue
Битрейт аудио: lossless
Продолжительность: 00:58:41
Источник (релизер): What.cd, kye21lp
Наличие сканов в содержимом раздачи: да
Треклист:
01. Akalé Wubé - Jawa Jawa (Alternate Take)
02. The Heliocentrics - Phantom Of The Panther
03. Imperial Tiger Orchestra - Yefikir Woha Timu
04. The Budos Band - Origin Of Man
05. Shawn Lee's Ping Pong Orchestra - Ethio
06. Woima Collective - Woima
07. Les Freres Smith - La Marche Des Smith
08. The Malcouns - Girma´s Lament
09. Zafari - Addis Ababa
10. Whitefield Brothers - Sem Yelesh
11. Transgressors - Beyond Addis
12. Tezeta Band - Drop It!
13. The Shaolin Afronauts - The Scarab
14. Debo Band - Trek From Ethiopia (Part 1)
 
Лог создания рипа
Exact Audio Copy V1.0 beta 3 from 29. August 2011
EAC extraction logfile from 23. October 2014, 16:46
Various / Beyond Addis: Contemporary Jazz & Funk Inspired by Ethiopian Sounds from the 70s
Used drive : ASUS DRW-24B3ST Adapter: 2 ID: 1
Read mode : Secure
Utilize accurate stream : Yes
Defeat audio cache : Yes
Make use of C2 pointers : No
Read offset correction : 6
Overread into Lead-In and Lead-Out : No
Fill up missing offset samples with silence : Yes
Delete leading and trailing silent blocks : No
Null samples used in CRC calculations : Yes
Used interface : Native Win32 interface for Win NT & 2000
Gap handling : Appended to previous track
Used output format : User Defined Encoder
Selected bitrate : 1024 kBit/s
Quality : High
Add ID3 tag : No
Command line compressor : C:\Program Files (x86)\Exact Audio Copy\Flac\flac.exe
Additional command line options : -8 -V -T "ARTIST=%artist%" -T "TITLE=%title%" -T "ALBUM=%albumtitle%" -T "DATE=%year%" -T "TRACKNUMBER=%tracknr%" -T "GENRE=%genre%" -T "PERFORMER=%albuminterpret%" -T "COMPOSER=%composer%" %haslyrics%-tag-from-file=LYRICS="%lyricsfile%"%haslyrics% -T "ALBUMARTIST=%albumartist%" -T "DISCNUMBER=%cdnumber%" -T "TOTALDISCS=%totalcds%" -T "TOTALTRACKS=%numtracks%" -T "COMMENT=%comment%" %source% -o %dest%
TOC of the extracted CD
Track | Start | Length | Start sector | End sector
---------------------------------------------------------
1 | 0:00.00 | 4:48.14 | 0 | 21613
2 | 4:48.14 | 2:21.12 | 21614 | 32200
3 | 7:09.26 | 4:52.39 | 32201 | 54139
4 | 12:01.65 | 4:54.24 | 54140 | 76213
5 | 16:56.14 | 3:43.32 | 76214 | 92970
6 | 20:39.46 | 3:16.24 | 92971 | 107694
7 | 23:55.70 | 5:55.10 | 107695 | 134329
8 | 29:51.05 | 2:55.46 | 134330 | 147500
9 | 32:46.51 | 3:39.68 | 147501 | 163993
10 | 36:26.44 | 3:22.57 | 163994 | 179200
11 | 39:49.26 | 4:03.45 | 179201 | 197470
12 | 43:52.71 | 4:53.65 | 197471 | 219510
13 | 48:46.61 | 4:55.50 | 219511 | 241685
14 | 53:42.36 | 4:59.03 | 241686 | 264113
Track 1
Filename E:\EACrips\01 Akalé Wubé - Jawa jawa (alternate take).wav
Pre-gap length 0:00:02.00
Peak level 97.5 %
Extraction speed 3.0 X
Track quality 99.9 %
Test CRC 5531D920
Copy CRC 5531D920
Accurately ripped (confidence 1) [9BF793CF] (AR v2)
Copy OK
Track 2
Filename E:\EACrips\02 The Heliocentrics - Phantom of the Panther.wav
Pre-gap length 0:00:02.00
Peak level 79.6 %
Extraction speed 3.5 X
Track quality 100.0 %
Test CRC 0E47B113
Copy CRC 0E47B113
Accurately ripped (confidence 1) [61F0D87A] (AR v2)
Copy OK
Track 3
Filename E:\EACrips\03 Imperial Tiger Orchestra - Yefikir woha timu.wav
Pre-gap length 0:00:02.00
Peak level 97.5 %
Extraction speed 3.5 X
Track quality 99.9 %
Test CRC 7F1F91FF
Copy CRC 7F1F91FF
Accurately ripped (confidence 1) [AB0A234C] (AR v2)
Copy OK
Track 4
Filename E:\EACrips\04 Budos Band - Origin of Man.wav
Pre-gap length 0:00:02.00
Peak level 97.5 %
Extraction speed 4.6 X
Track quality 100.0 %
Test CRC 909B3C76
Copy CRC 909B3C76
Accurately ripped (confidence 1) [7CD78B88] (AR v2)
Copy OK
Track 5
Filename E:\EACrips\05 Shawn Lee's Ping Pong Orchestra - Ethio.wav
Pre-gap length 0:00:02.00
Peak level 83.1 %
Extraction speed 3.8 X
Track quality 99.9 %
Test CRC EC5F2B6A
Copy CRC EC5F2B6A
Accurately ripped (confidence 1) [F1124E03] (AR v2)
Copy OK
Track 6
Filename E:\EACrips\06 Woima Collective - Woima.wav
Pre-gap length 0:00:02.00
Peak level 97.5 %
Extraction speed 4.9 X
Track quality 100.0 %
Test CRC 27CFB04A
Copy CRC 27CFB04A
Accurately ripped (confidence 1) [08FDCA00] (AR v2)
Copy OK
Track 7
Filename E:\EACrips\07 Les Frères Smith - La Marche des Smith.wav
Pre-gap length 0:00:02.00
Peak level 97.5 %
Extraction speed 5.6 X
Track quality 100.0 %
Test CRC E8769E5C
Copy CRC E8769E5C
Accurately ripped (confidence 1) [89B0E2F6] (AR v2)
Copy OK
Track 8
Filename E:\EACrips\08 Karl Hector & the Malcouns - Girma's Lament.wav
Pre-gap length 0:00:02.00
Peak level 97.5 %
Extraction speed 3.8 X
Track quality 99.9 %
Test CRC 99D00648
Copy CRC 99D00648
Accurately ripped (confidence 1) [9DA8E915] (AR v2)
Copy OK
Track 9
Filename E:\EACrips\09 Zafari - Addis Ababa.wav
Pre-gap length 0:00:02.00
Peak level 97.5 %
Extraction speed 5.0 X
Track quality 100.0 %
Test CRC 92D0801C
Copy CRC 92D0801C
Accurately ripped (confidence 1) [4AEB47F2] (AR v2)
Copy OK
Track 10
Filename E:\EACrips\10 Whitefield Brothers - Sem yelesh.wav
Pre-gap length 0:00:02.00
Peak level 97.5 %
Extraction speed 5.8 X
Track quality 100.0 %
Test CRC 4F3DEDDD
Copy CRC 4F3DEDDD
Accurately ripped (confidence 1) [0836EC9F] (AR v2)
Copy OK
Track 11
Filename E:\EACrips\11 Transgressors - Beyond Addis.wav
Pre-gap length 0:00:02.00
Peak level 97.5 %
Extraction speed 6.1 X
Track quality 100.0 %
Test CRC C49FB3B3
Copy CRC C49FB3B3
Accurately ripped (confidence 1) [DC167F37] (AR v2)
Copy OK
Track 12
Filename E:\EACrips\12 Tezeta Band - Drop It!.wav
Pre-gap length 0:00:02.00
Peak level 97.5 %
Extraction speed 6.5 X
Track quality 100.0 %
Test CRC BB7DA8FB
Copy CRC BB7DA8FB
Accurately ripped (confidence 1) [0FB46183] (AR v2)
Copy OK
Track 13
Filename E:\EACrips\13 The Shaolin Afronauts - The Scarab.wav
Pre-gap length 0:00:02.00
Peak level 97.5 %
Extraction speed 6.6 X
Track quality 100.0 %
Test CRC FC4CF4E2
Copy CRC FC4CF4E2
Accurately ripped (confidence 1) [39D468A3] (AR v2)
Copy OK
Track 14
Filename E:\EACrips\14 Debo Band - Trek from Ethiopia (Part 1).wav
Pre-gap length 0:00:02.00
Peak level 100.0 %
Extraction speed 6.5 X
Track quality 100.0 %
Test CRC 2B06DEB9
Copy CRC 2B06DEB9
Accurately ripped (confidence 1) [DAF2A062] (AR v2)
Copy OK
All tracks accurately ripped
No errors occurred
End of status report
---- CUETools DB Plugin V2.1.4
[CTDB TOCID: BEAA6ODYIgfFu8Gogcp3TDLSYJk-] disk not present in database
Submit result: BEAA6ODYIgfFu8Gogcp3TDLSYJk- has been uploaded
==== Log checksum 6084D321F71232AB8C7642915C4BE04D8F94A809EF4A66631E1050ED16783B20 ====
 
Содержание индексной карты (.CUE)
REM DATE 2014
REM DISCID BF0DC10E
REM COMMENT "ExactAudioCopy v1.0b3"
FILE "01 Akalé Wubé - Jawa jawa (alternate take).wav" WAVE
TRACK 01 AUDIO
INDEX 01 00:00:00
TRACK 02 AUDIO
INDEX 00 04:46:14
FILE "02 The Heliocentrics - Phantom of the Panther.wav" WAVE
INDEX 01 00:00:00
TRACK 03 AUDIO
INDEX 00 02:19:12
FILE "03 Imperial Tiger Orchestra - Yefikir woha timu.wav" WAVE
INDEX 01 00:00:00
TRACK 04 AUDIO
INDEX 00 04:50:39
FILE "04 Budos Band - Origin of Man.wav" WAVE
INDEX 01 00:00:00
TRACK 05 AUDIO
INDEX 00 04:52:24
FILE "05 Shawn Lee's Ping Pong Orchestra - Ethio.wav" WAVE
INDEX 01 00:00:00
TRACK 06 AUDIO
INDEX 00 03:41:32
FILE "06 Woima Collective - Woima.wav" WAVE
INDEX 01 00:00:00
TRACK 07 AUDIO
INDEX 00 03:14:24
FILE "07 Les Frères Smith - La Marche des Smith.wav" WAVE
INDEX 01 00:00:00
TRACK 08 AUDIO
INDEX 00 05:53:10
FILE "08 Karl Hector & the Malcouns - Girma's Lament.wav" WAVE
INDEX 01 00:00:00
TRACK 09 AUDIO
INDEX 00 02:53:46
FILE "09 Zafari - Addis Ababa.wav" WAVE
INDEX 01 00:00:00
TRACK 10 AUDIO
INDEX 00 03:37:68
FILE "10 Whitefield Brothers - Sem yelesh.wav" WAVE
INDEX 01 00:00:00
TRACK 11 AUDIO
INDEX 00 03:20:57
FILE "11 Transgressors - Beyond Addis.wav" WAVE
INDEX 01 00:00:00
TRACK 12 AUDIO
INDEX 00 04:01:45
FILE "12 Tezeta Band - Drop It!.wav" WAVE
INDEX 01 00:00:00
TRACK 13 AUDIO
INDEX 00 04:51:65
FILE "13 The Shaolin Afronauts - The Scarab.wav" WAVE
INDEX 01 00:00:00
TRACK 14 AUDIO
INDEX 00 04:53:50
FILE "14 Debo Band - Trek from Ethiopia (Part 1).wav" WAVE
INDEX 01 00:00:00
 
Лог проверки качества
fooCDtect - foobar2000 + auCDtect, baralgin.
auCDtect: CD records authenticity detector, version 0.8.2
Copyright (c) 2004 Oleg Berngardt. All rights reserved.
Copyright (c) 2004 Alexander Djourik. All rights reserved.
mode: 0
===========================================
Track: 01. Jawa Jawa (alternate take)
Quality: CDDA 100%
===========================================
Track: 02. Phantom of the Panther
Quality: CDDA 99%
===========================================
Track: 03. Yefikir Woha Timu
Quality: CDDA 99%
===========================================
Track: 04. Origin of Man
Quality: CDDA 100%
===========================================
Track: 05. Ethio
Quality: CDDA 100%
===========================================
Track: 06. Woima
Quality: CDDA 100%
===========================================
Track: 07. La Marche des Smith
Quality: CDDA 100%
===========================================
Track: 08. Girma's Lament
Quality: CDDA 100%
===========================================
Track: 09. Addis Ababa
Quality: CDDA 100%
===========================================
Track: 10. Sem Yelesh
Quality: CDDA 100%
===========================================
Track: 11. Beyond Addis
Quality: CDDA 100%
===========================================
Track: 12. Drop It!
Quality: CDDA 100%
===========================================
Track: 13. The Scarab
Quality: CDDA 100%
===========================================
Track: 14. Trek from Ethiopia (Part 1)
Quality: CDDA 100%
===========================================
21:50
234
Нет комментариев. Ваш будет первым!