Поиск

(World Fusion, Experimental Rock, Free Improvisation) Amy Denio - Birthing Chair Blues - 1991, FLAC (image+.cue), lossless

(World Fusion, Experimental Rock, Free Improvisation) Amy Denio - Birthing Chair Blues - 1991, FLAC (image+.cue), lossless
Треклист:
Amy Denio - Birthing Chair Blues
Жанр: World Fusion, Experimental Rock, Free Improvisation
Год выпуска диска: 1991
Производитель диска: Россия
Аудио кодек: FLAC
Тип рипа: image+.cue
Битрейт аудио: lossless
Продолжительность: 60:07
Трэклист:
1. Birthing Chair Blues (Denio) 4:42
2. Apocalypso (Denio) 5:28
3. Dishwasher (Denio) 4:08
4. Palacinka (Denio) 5:56
5. Frank (Denio) 3:30
6. Nostrile Mittening (Denio) 2:33
7. Car Life (Denio) 3:33
8. Soundcheck (Denio) 3:36
9. (When George Bush Was Head Of The) C.I.A. (Denio) 3:20
10. I Will Be Sad (Denio) 3:44
11. BUNT (Denio/Larsen) 4:31
12. Gifts (Denio) 5:04
13. Something Brewing (Denio) 2:13
14. Lullabye (Denio) 4:44
15. Miss Em (Denio) 2:10
Доп. информация:
Музыканты - Amy Denio единолично. В буклете арсенал ее инструментов и предметов звукоизвлечения обозначен следующим образом: fretted and fretless bass, electric and slide guitar, voices galore, alto sax, harmonica, alto recorder, bass mbira, popping bass calloused thumb joint on PZM mic, dishwasher, washing machine, low-fi Audion organ and the dreaded drum machine, all going in various directions at various speeds.
 
EAC Report
Exact Audio Copy V0.99 prebeta 4 from 23. January 2008
Отчёт EAC об извлечении, выполненном 15. февраля 2010, 20:50
Amy Denio / Birthing Chair Blues
Дисковод: ASUS DRW-1814BLT Adapter: 2 ID: 0
Режим чтения : Достоверность
Использование точного потока : Да
Отключение кэша аудио : Да
Использование указателей C2 : Нет
Коррекция смещения при чтении : 6
Способность читать области Lead-in и Lead-out : Нет
Заполнение пропущенных сэмплов тишиной : Да
Удаление блоков с тишиной в начале и конце : Нет
При вычислениях CRC использовались нулевые сэмплы : Да
Интерфейс : Встроенный Win32-интерфейс для Win NT/2000
Выходной формат : Пользовательский кодировщик
Выбранный битрейт : 768 kBit/s
Качество : Высокий
Добавление ID3-тэга : Нет
Утилита сжатия : D:\Program Files\Exact Audio Copy\Flac\Flac.exe
Дополнительные параметры : -8 --delete-input-file -o "D:\CDImage.flac" -V %s
TOC извлечённого CD
Трек | Старт | Длительность | Начальный сектор | Конечный сектор
---------------------------------------------------------------------
1 | 0:00.00 | 4:52.70 | 0 | 21969
2 | 4:52.70 | 5:28.25 | 21970 | 46594
3 | 10:21.20 | 4:08.50 | 46595 | 65244
4 | 14:29.70 | 5:56.30 | 65245 | 91974
5 | 20:26.25 | 3:36.50 | 91975 | 108224
6 | 24:03.00 | 2:36.13 | 108225 | 119937
7 | 26:39.13 | 3:43.05 | 119938 | 136667
8 | 30:22.18 | 3:36.15 | 136668 | 152882
9 | 33:58.33 | 3:21.05 | 152883 | 167962
10 | 37:19.38 | 3:46.25 | 167963 | 184937
11 | 41:05.63 | 4:36.02 | 184938 | 205639
12 | 45:41.65 | 5:07.53 | 205640 | 228717
13 | 50:49.43 | 2:16.10 | 228718 | 238927
14 | 53:05.53 | 4:48.52 | 238928 | 260579
15 | 57:54.30 | 2:12.70 | 260580 | 270549
Характеристики диапазона извлечения и сообщения об ошибках
Выбранный диапазон
Имя файла D:\Amy Denio - Birthing Chair Blues.wav
Пиковый уровень 100.0 %
Качество диапазона 100.0 %
CRC теста F6E39684
CRC копии F6E39684
Копирование... OK
Ошибок не произошло
AccurateRip: сводка
Трек 1 точность не определена (достоверность 2) [6130B447], AccurateRip вернул [0145C01B]
Трек 2 точность не определена (достоверность 2) [9EB33149], AccurateRip вернул [9D86FD47]
Трек 3 точность не определена (достоверность 2) [FC032A79], AccurateRip вернул [BB210B77]
Трек 4 точность не определена (достоверность 2) [5FE48EC3], AccurateRip вернул [13BBE55B]
Трек 5 нет в базе данных
Трек 6 нет в базе данных
Трек 7 точность не определена (достоверность 2) [BBAF6466], AccurateRip вернул [BF4A90EE]
Трек 8 точность не определена (достоверность 2) [E9C05E1C], AccurateRip вернул [EBA68846]
Трек 9 точность не определена (достоверность 2) [D40DA4AC], AccurateRip вернул [B164C270]
Трек 10 точность не определена (достоверность 2) [417679B2], AccurateRip вернул [51E35878]
Трек 11 точность не определена (достоверность 2) [D7E7BE48], AccurateRip вернул [590F711E]
Трек 12 точность не определена (достоверность 2) [E3248387], AccurateRip вернул [3AF42FBD]
Трек 13 точность не определена (достоверность 2) [883611F4], AccurateRip вернул [2149809A]
Трек 14 точность не определена (достоверность 2) [B9D6FCE6], AccurateRip вернул [228C3552]
Трек 15 точность не определена (достоверность 2) [7D63ABFB], AccurateRip вернул [777BA773]
13 трек(и) не удалось проверить на точность
2 трек(и) не содержатся в базе AccurateRip
Ни один трек не прошёл проверки на точность
В вашей базе может быть иной вариант штамповки диска
Конец отчёта
Download available for power users only.
11:23
247
Нет комментариев. Ваш будет первым!