Поиск

(Jazz, Bossa Nova) VA - Fino Bossa Nova & Fino Bossa Nova Mar - 2 CD - 2008, FLAC (image+.cue), lossless

(Jazz, Bossa Nova) VA - Fino Bossa Nova & Fino Bossa Nova Mar - 2 CD - 2008, FLAC (image+.cue), lossless
Треклист:
VA - Fino Bossa Nova & Fino Bossa Nova Mar - 2 CD
Жанр: Jazz, Bossa Nova
Год выпуска диска: 2008
Производитель диска: China (BMG Taiwan & Starsing Records)
Аудио кодек: FLAC
Тип рипа: image+.cue
Битрейт аудио: lossless
Продолжительность: 142 min 55 sec
Трэклист:
CD 1:
01. Tamba Trio / Mas Que Nada 03:22
02. Joao Donato / Samba De Orfeu 02:45
03. Maria Creuza / Garota De Ipanema 03:21
04. Stan Getz & Joao Gilberto / Corcovado 04:19
05. Sebastiao Tapajos / Wave 04:55
06. Stan Getz & Charlie Byrd / Samba De Uma Nota So 06:14
07. Walter Santos / Samba Pro Pedrinho 03:27
08. Quarteto Em Cy / A Felicidade 03:41
09. Joao Donato / Manha De Carnaval 03:10
10. Antonio Carlos Jobim / Chega De Saudade 04:24
11. Johnny Aif / O Barquinho 02:51
12. Lisa Ono / Desafinado 02:46
13. Maria Creuza / Agua De Beber 03:21
14. Milton Banana Trio / Samba De Orly-Regra Tres 03:21
15. Tamba Trio / 3 Horas Da Manha 02:46
16. Raul De Souza / A Vontade Mesmo 04:46
17. Miucha & Antonio Carlos Jobim / Samba Do Aviao 02:56
18. Lisa Ekdahl / I Will Be Blessed 02:47
19. Gal Costa / Aquele Frevo Axe 03:54
20. Shigeko Suzuki / Cause I Love You 05:10
CD 2:
01. Lisa Ono & Joao Donato / Girl from Ipanema 05:05
02. Carlos Lyra / Voce e eu 03:02
03. Toquinnho & Gilberto Gil / Tarde em Itapoa 04:16
04. Lisa Ono / Brisa do mar 04:48
05. Joao Donato / Amazon (Amazonas) 02:34
06. Caetano Veloso / Samba em paz 02:07
07. Rosinha de Valenca / Samba da minha terra 02:17
08. Flora Purim / Reza 02:26
09. Mario Castro Neves & Samba S.A. / E Nada mais 03:08
10. Tamba Trio / So danco samba 02:01
11. Maria Creuza / Samba de orly 02:39
12. Lisa Ono / Ara 03:37
13. John Pizzarelli / So wonderful 06:13
14. Toots Thielemans & Caetano Veloso / Coracao Vagabundo 04:30
15. Johnny Alf & Chico Buarque / Seu Chopin, Desculpe (Choro Do Minuto) 02:30
16. Miucha & Antonio Carlos Jobim / Na Batucada Da Vida 02:51
17. Carlos Lyra / Coisa Mais Linda 02:39
18. Lisa Ono & Quarteto Em CY / Dindi 03:39
19. Lisa Ekdahl / Daybreak 03:17
20. Gal Costa / Aquarella Do Brasil 03:45
21. Various / Chega De Saudade 01:54
 
Отчёт EAC CD 1
Exact Audio Copy V0.99 prebeta 5 from 4. May 2009
Отчёт EAC об извлечении, выполненном 6. октября 2009, 20:01
Various Artists / Fino - Bossa Nova
Дисковод: Optiarc DVD RW AD-7240S Adapter: 1 ID: 1
Режим чтения : Достоверность
Использование точного потока : Да
Отключение кэша аудио : Да
Использование указателей C2 : Нет
Коррекция смещения при чтении : 48
Способность читать области Lead-in и Lead-out : Нет
Заполнение пропущенных сэмплов тишиной : Да
Удаление блоков с тишиной в начале и конце : Нет
При вычислениях CRC использовались нулевые сэмплы : Да
Интерфейс : Встроенный Win32-интерфейс для Win NT/2000
Выходной формат : Пользовательский кодировщик
Выбранный битрейт : 1024 kBit/s
Качество : Высокий
Добавление ID3-тэга : Да
Утилита сжатия : C:\Program Files\Exact Audio Copy\Flac\flac.exe
Дополнительные параметры : -8 -V -T "ARTIST=%a" -T "TITLE=%t" -T "ALBUM=%g" -T "DATE=%y" -T "TRACKNUMBER=%n" -T "GENRE=%m" -T "COMMENT=EACFLAC -8" %s
TOC извлечённого CD
Трек | Старт | Длительность | Начальный сектор | Конечный сектор
---------------------------------------------------------------------
1 | 0:00.00 | 3:22.74 | 0 | 15223
2 | 3:22.74 | 2:45.46 | 15224 | 27644
3 | 6:08.45 | 3:21.71 | 27645 | 42790
4 | 9:30.41 | 4:19.46 | 42791 | 62261
5 | 13:50.12 | 4:55.30 | 62262 | 84416
6 | 18:45.42 | 6:14.57 | 84417 | 112523
7 | 25:00.24 | 3:27.05 | 112524 | 128053
8 | 28:27.29 | 3:41.47 | 128054 | 144675
9 | 32:09.01 | 3:10.33 | 144676 | 158958
10 | 35:19.34 | 4:24.62 | 158959 | 178820
11 | 39:44.21 | 2:51.49 | 178821 | 191694
12 | 42:35.70 | 2:46.65 | 191695 | 204209
13 | 45:22.60 | 3:21.48 | 204210 | 219332
14 | 48:44.33 | 3:21.13 | 219333 | 234420
15 | 52:05.46 | 2:46.49 | 234421 | 246919
16 | 54:52.20 | 4:46.28 | 246920 | 268397
17 | 59:38.48 | 2:56.15 | 268398 | 281612
18 | 62:34.63 | 2:47.30 | 281613 | 294167
19 | 65:22.18 | 3:54.48 | 294168 | 311765
20 | 69:16.66 | 5:10.29 | 311766 | 335044
Характеристики диапазона извлечения и сообщения об ошибках
Выбранный диапазон
Имя файла F:\Музычго\Fino - Bossa Nova\CD 1\Various Artists - Fino - Bossa Nova.wav
Пиковый уровень 90.3 %
Качество диапазона 99.9 %
CRC теста 3B2C3774
CRC копии 3B2C3774
Копирование... OK
Ошибок не произошло
AccurateRip: сводка
Трек 1 нет в базе данных
Трек 2 нет в базе данных
Трек 3 нет в базе данных
Трек 4 нет в базе данных
Трек 5 нет в базе данных
Трек 6 нет в базе данных
Трек 7 нет в базе данных
Трек 8 нет в базе данных
Трек 9 нет в базе данных
Трек 10 нет в базе данных
Трек 11 нет в базе данных
Трек 12 нет в базе данных
Трек 13 нет в базе данных
Трек 14 нет в базе данных
Трек 15 нет в базе данных
Трек 16 нет в базе данных
Трек 17 нет в базе данных
Трек 18 нет в базе данных
Трек 19 нет в базе данных
Трек 20 нет в базе данных
Ни одного трека нет в базе AccurateRip
Конец отчёта
 
Отчёт EAC CD 2
Exact Audio Copy V0.99 prebeta 5 from 4. May 2009
Отчёт EAC об извлечении, выполненном 6. октября 2009, 20:39
Various Artists / Fino Bossa Nova Mar
Дисковод: Optiarc DVD RW AD-7240S Adapter: 1 ID: 1
Режим чтения : Достоверность
Использование точного потока : Да
Отключение кэша аудио : Да
Использование указателей C2 : Нет
Коррекция смещения при чтении : 48
Способность читать области Lead-in и Lead-out : Нет
Заполнение пропущенных сэмплов тишиной : Да
Удаление блоков с тишиной в начале и конце : Нет
При вычислениях CRC использовались нулевые сэмплы : Да
Интерфейс : Встроенный Win32-интерфейс для Win NT/2000
Выходной формат : Пользовательский кодировщик
Выбранный битрейт : 1024 kBit/s
Качество : Высокий
Добавление ID3-тэга : Да
Утилита сжатия : C:\Program Files\Exact Audio Copy\Flac\flac.exe
Дополнительные параметры : -8 -V -T "ARTIST=%a" -T "TITLE=%t" -T "ALBUM=%g" -T "DATE=%y" -T "TRACKNUMBER=%n" -T "GENRE=%m" -T "COMMENT=EACFLAC -8" %s
TOC извлечённого CD
Трек | Старт | Длительность | Начальный сектор | Конечный сектор
---------------------------------------------------------------------
1 | 0:00.00 | 5:05.55 | 0 | 22929
2 | 5:05.55 | 3:02.27 | 22930 | 36606
3 | 8:08.07 | 4:16.60 | 36607 | 55866
4 | 12:24.67 | 4:48.13 | 55867 | 77479
5 | 17:13.05 | 2:34.60 | 77480 | 89089
6 | 19:47.65 | 2:07.12 | 89090 | 98626
7 | 21:55.02 | 2:17.58 | 98627 | 108959
8 | 24:12.60 | 2:26.22 | 108960 | 119931
9 | 26:39.07 | 3:08.60 | 119932 | 134091
10 | 29:47.67 | 2:01.70 | 134092 | 143236
11 | 31:49.62 | 2:39.18 | 143237 | 155179
12 | 34:29.05 | 3:37.05 | 155180 | 171459
13 | 38:06.10 | 6:13.55 | 171460 | 199489
14 | 44:19.65 | 4:30.50 | 199490 | 219789
15 | 48:50.40 | 2:30.52 | 219790 | 231091
16 | 51:21.17 | 2:51.15 | 231092 | 243931
17 | 54:12.32 | 2:39.20 | 243932 | 255876
18 | 56:51.52 | 3:39.20 | 255877 | 272321
19 | 60:30.72 | 3:17.23 | 272322 | 287119
20 | 63:48.20 | 3:45.42 | 287120 | 304036
21 | 67:33.62 | 1:54.73 | 304037 | 312659
Характеристики диапазона извлечения и сообщения об ошибках
Выбранный диапазон
Имя файла F:\Музычго\Fino - Bossa Nova\CD 2\Various Artists - Fino Bossa Nova Mar.wav
Пиковый уровень 100.0 %
Качество диапазона 100.0 %
CRC теста E12F9C3B
CRC копии E12F9C3B
Копирование... OK
Ошибок не произошло
AccurateRip: сводка
Трек 1 точное извлечение (доверие 1) [3EFD7A56]
Трек 2 точное извлечение (доверие 1) [094EA7B0]
Трек 3 точное извлечение (доверие 1) [0B975AD0]
Трек 4 точное извлечение (доверие 1) [11330704]
Трек 5 точное извлечение (доверие 1) [F6A7DD0C]
Трек 6 точное извлечение (доверие 1) [1C28EB06]
Трек 7 точное извлечение (доверие 1) [6F1FF18B]
Трек 8 точное извлечение (доверие 1) [0FDC200E]
Трек 9 точное извлечение (доверие 1) [20645FFA]
Трек 10 точное извлечение (доверие 1) [F69445FE]
Трек 11 точное извлечение (доверие 1) [398D9D06]
Трек 12 точное извлечение (доверие 1) [1968B262]
Трек 13 точное извлечение (доверие 1) [D6CA3510]
Трек 14 точное извлечение (доверие 1) [C79F8880]
Трек 15 точное извлечение (доверие 1) [D50BB115]
Трек 16 точное извлечение (доверие 1) [ACB28A36]
Трек 17 точное извлечение (доверие 1) [7059D68F]
Трек 18 точное извлечение (доверие 1) [09C5B284]
Трек 19 точное извлечение (доверие 1) [F22D6001]
Трек 20 точное извлечение (доверие 1) [16BED538]
Трек 21 точное извлечение (доверие 1) [78DEBABA]
Все треки извлечены точно
Конец отчёта
Download available for power users only.
11:23
321
Нет комментариев. Ваш будет первым!