Поиск

(World Fusion, Ethnic Jazz) Trilok Gurtu - Spellbound - 2013, FLAC (tracks+.cue), lossless

(World Fusion, Ethnic Jazz) Trilok Gurtu - Spellbound - 2013, FLAC (tracks+.cue), lossless
Треклист:
♦ Trilok Gurtu - Spellbound ♦
Жанр: World Fusion, Ethnic Jazz
Страна-производитель диска: Germany
Год издания: 2013
Издатель (лейбл): Moosicus Records
Номер по каталогу: M 1206-2
Аудиокодек: FLAC (*.flac)
Тип рипа: tracks+.cue
Битрейт аудио: lossless
Продолжительность: 00:57:37
Источник (релизер): jlgt
Наличие сканов в содержимом раздачи: да
Треклист:
01. Improvisation Live Don Cherry & Trilok [0:33]
02. Manteca [4:36]
03. Jack Johnson / Black Satin [9:38]
04. Cuckoo [4:55]
05. Berchidda [5:33]
06. Like Popcorn [4:23]
07. Haunting [5:15]
08. Universal Mother [6:29]
09. Spellbound [4:32]
10. All Blues [6:41]
11. Cosmic Roundabout / Brown Rice [4:39]
12. Thank You By Don Cherry [0:15]
 
Лог создания рипа
Exact Audio Copy V1.0 beta 3 from 29. August 2011
EAC extraction logfile from 31. May 2013, 20:37
Trilok Gurtu / Spellbound [Moosicus Records M 1206-2]
Used drive : PLEXTOR DVDR PX-L890SA Adapter: 2 ID: 1
Read mode : Secure
Utilize accurate stream : Yes
Defeat audio cache : Yes
Make use of C2 pointers : No
Read offset correction : 6
Overread into Lead-In and Lead-Out : No
Fill up missing offset samples with silence : Yes
Delete leading and trailing silent blocks : No
Null samples used in CRC calculations : Yes
Used interface : Native Win32 interface for Win NT & 2000
Gap handling : Appended to previous track
Used output format : User Defined Encoder
Selected bitrate : 256 kBit/s
Quality : High
Add ID3 tag : No
Command line compressor : C:\Program Files (x86)\Exact Audio Copy\FLAC\FLAC.EXE
Additional command line options : -8 -V -T "ARTIST=%artist%" -T "TITLE=%title%" -T "ALBUM=%albumtitle%" -T "DATE=%year%" -T "TRACKNUMBER=%tracknr%" -T "TOTALTRACKS=%numtracks%" -T "GENRE=%genre%" -T "ALBUMARTIST=%albumartist%" -T "ALBUM ARTIST=%albumartist%" -T "COMMENT=EAC Secure Mode, Test & Copy, AccurateRip, FLAC -8" %source%
TOC of the extracted CD
Track | Start | Length | Start sector | End sector
---------------------------------------------------------
1 | 0:00.00 | 0:33.58 | 0 | 2532
2 | 0:33.58 | 4:36.65 | 2533 | 23297
3 | 5:10.48 | 9:38.39 | 23298 | 66686
4 | 14:49.12 | 4:56.37 | 66687 | 88923
5 | 19:45.49 | 5:36.16 | 88924 | 114139
6 | 25:21.65 | 4:25.15 | 114140 | 134029
7 | 29:47.05 | 5:16.40 | 134030 | 157769
8 | 35:03.45 | 6:30.06 | 157770 | 187025
9 | 41:33.51 | 4:32.41 | 187026 | 207466
10 | 46:06.17 | 6:41.65 | 207467 | 237606
11 | 52:48.07 | 4:39.28 | 237607 | 258559
12 | 57:27.35 | 0:15.04 | 258560 | 259688
Track 1
Filename F:\Flac Rips\01 - Improvisation Live-Don Cherry & Trilok Gurtu.wav
Pre-gap length 0:00:02.00
Peak level 42.4 %
Extraction speed 1.7 X
Track quality 100.0 %
Test CRC 468A322C
Copy CRC 468A322C
Track not present in AccurateRip database
Copy OK
Track 2
Filename F:\Flac Rips\02 - Manteca.wav
Peak level 97.7 %
Extraction speed 3.1 X
Track quality 99.9 %
Test CRC 2C881814
Copy CRC 2C881814
Track not present in AccurateRip database
Copy OK
Track 3
Filename F:\Flac Rips\03 - Jack Johnson-Black Satin.wav
Pre-gap length 0:00:00.51
Peak level 97.6 %
Extraction speed 4.7 X
Track quality 100.0 %
Test CRC AFFF1179
Copy CRC AFFF1179
Track not present in AccurateRip database
Copy OK
Track 4
Filename F:\Flac Rips\04 - Cuckoo.wav
Pre-gap length 0:00:00.19
Peak level 89.6 %
Extraction speed 4.2 X
Track quality 99.9 %
Test CRC DD3A65B9
Copy CRC DD3A65B9
Track not present in AccurateRip database
Copy OK
Track 5
Filename F:\Flac Rips\05 - Berchidda.wav
Pre-gap length 0:00:01.34
Peak level 97.7 %
Extraction speed 5.4 X
Track quality 100.0 %
Test CRC 724F74BA
Copy CRC 724F74BA
Track not present in AccurateRip database
Copy OK
Track 6
Filename F:\Flac Rips\06 - Like Popcorn.wav
Pre-gap length 0:00:02.22
Peak level 97.7 %
Extraction speed 5.7 X
Track quality 100.0 %
Test CRC CAA2756D
Copy CRC CAA2756D
Track not present in AccurateRip database
Copy OK
Track 7
Filename F:\Flac Rips\07 - Haunting.wav
Pre-gap length 0:00:01.30
Peak level 97.7 %
Extraction speed 6.1 X
Track quality 100.0 %
Test CRC 6066DBB5
Copy CRC 6066DBB5
Track not present in AccurateRip database
Copy OK
Track 8
Filename F:\Flac Rips\08 - Universal Mother.wav
Pre-gap length 0:00:01.04
Peak level 97.7 %
Extraction speed 5.7 X
Track quality 99.9 %
Test CRC 09D42C5D
Copy CRC 09D42C5D
Track not present in AccurateRip database
Copy OK
Track 9
Filename F:\Flac Rips\09 - Spellbound.wav
Pre-gap length 0:00:00.48
Peak level 97.7 %
Extraction speed 5.4 X
Track quality 99.9 %
Test CRC E1C148D4
Copy CRC E1C148D4
Track not present in AccurateRip database
Copy OK
Track 10
Filename F:\Flac Rips\10 - All Blues.wav
Pre-gap length 0:00:00.33
Peak level 97.2 %
Extraction speed 7.2 X
Track quality 100.0 %
Test CRC BE08CCCE
Copy CRC BE08CCCE
Track not present in AccurateRip database
Copy OK
Track 11
Filename F:\Flac Rips\11 - Cosmic Roundabout-Brown Rice.wav
Pre-gap length 0:00:00.36
Peak level 95.5 %
Extraction speed 7.2 X
Track quality 100.0 %
Test CRC 3BEC7FE1
Copy CRC 3BEC7FE1
Track not present in AccurateRip database
Copy OK
Track 12
Filename F:\Flac Rips\12 - Thank You By Don Cherry.wav
Peak level 21.0 %
Extraction speed 2.3 X
Track quality 100.0 %
Test CRC 916881DA
Copy CRC 916881DA
Track not present in AccurateRip database
Copy OK
None of the tracks are present in the AccurateRip database
No errors occurred
End of status report
==== Log checksum 527C7F11D972171078850252D70C1C1956F1D85F789B0BC52025C6DB4B32D08D ====
 
Содержание индексной карты (.CUE)
REM GENRE Jazz
REM DATE 2013
REM DISCID A90D860C
REM COMMENT "ExactAudioCopy v1.0b3"
PERFORMER "Trilok Gurtu"
TITLE "Spellbound [Moosicus Records M 1206-2]"
FILE "01 - Improvisation Live-Don Cherry & Trilok Gurtu.wav" WAVE
TRACK 01 AUDIO
TITLE "Improvisation Live:Don Cherry & Trilok Gurtu"
PERFORMER "Trilok Gurtu"
INDEX 01 00:00:00
FILE "02 - Manteca.wav" WAVE
TRACK 02 AUDIO
TITLE "Manteca"
PERFORMER "Trilok Gurtu"
INDEX 01 00:00:00
TRACK 03 AUDIO
TITLE "Jack Johnson-Black Satin"
PERFORMER "Trilok Gurtu"
INDEX 00 04:36:14
FILE "03 - Jack Johnson-Black Satin.wav" WAVE
INDEX 01 00:00:00
TRACK 04 AUDIO
TITLE "Cuckoo"
PERFORMER "Trilok Gurtu"
INDEX 00 09:38:20
FILE "04 - Cuckoo.wav" WAVE
INDEX 01 00:00:00
TRACK 05 AUDIO
TITLE "Berchidda"
PERFORMER "Trilok Gurtu"
INDEX 00 04:55:03
FILE "05 - Berchidda.wav" WAVE
INDEX 01 00:00:00
TRACK 06 AUDIO
TITLE "Like Popcorn"
PERFORMER "Trilok Gurtu"
INDEX 00 05:33:69
FILE "06 - Like Popcorn.wav" WAVE
INDEX 01 00:00:00
TRACK 07 AUDIO
TITLE "Haunting"
PERFORMER "Trilok Gurtu"
INDEX 00 04:23:60
FILE "07 - Haunting.wav" WAVE
INDEX 01 00:00:00
TRACK 08 AUDIO
TITLE "Universal Mother"
PERFORMER "Trilok Gurtu"
INDEX 00 05:15:36
FILE "08 - Universal Mother.wav" WAVE
INDEX 01 00:00:00
TRACK 09 AUDIO
TITLE "Spellbound"
PERFORMER "Trilok Gurtu"
INDEX 00 06:29:33
FILE "09 - Spellbound.wav" WAVE
INDEX 01 00:00:00
TRACK 10 AUDIO
TITLE "All Blues"
PERFORMER "Trilok Gurtu"
INDEX 00 04:32:08
FILE "10 - All Blues.wav" WAVE
INDEX 01 00:00:00
TRACK 11 AUDIO
TITLE "Cosmic Roundabout-Brown Rice"
PERFORMER "Trilok Gurtu"
INDEX 00 06:41:29
FILE "11 - Cosmic Roundabout-Brown Rice.wav" WAVE
INDEX 01 00:00:00
FILE "12 - Thank You By Don Cherry.wav" WAVE
TRACK 12 AUDIO
TITLE "Thank You By Don Cherry"
PERFORMER "Trilok Gurtu"
INDEX 01 00:00:00
 
Состав
Trilok Gurtu - drums, percussion, vocals, tambura, tabla, vocals, additional keyboards
Tulug Tirpan - keyboards, piano
Hassan Götzelik - trumpet
Jonathan Cuinado - bass
Nitin Shankar - additional percussion
Nils Peter Molvaer - trumpet
Paolo Fresu - trumpet & effects
Carlo Cantini - additional keyboards
Ibrahim Maaluf - trumpet
Matthias Schriefl - trumpet
Matthias Höfs - trumpet
Helene Traub - English horn
Jakob Janeschitz-Kreigel - cello
Ibrahim Maaluf: trumpet
Ambrose Akinmusire - trumpet
11:15
336
Нет комментариев. Ваш будет первым!