Поиск

(World, Vocal Jazz, Frisian Fado, Flamenco) Nynke / Nynke Laverman (feat. Javier Limon) - Alter - 2013, FLAC (tracks+.cue), lossless

(World, Vocal Jazz, Frisian Fado, Flamenco) Nynke / Nynke Laverman (feat. Javier Limon) - Alter - 2013, FLAC (tracks+.cue), lossless
Треклист:
Nynke (feat. Javier Limón) / Alter
Жанр: World, Vocal Jazz, Frisian Fado, Flamenco
Страна-производитель диска: Belgium
Год издания: 2013
Издатель (лейбл): Casa Limón / Crammed Discs
Номер по каталогу: CRAM 209
Страна: Friesland / Netherlands
Аудиокодек: FLAC (*.flac)
Тип рипа: tracks+.cue
Битрейт аудио: lossless
Продолжительность: 00:47:12
Источник (релизер): вата (благодарности ternognico)
Наличие сканов в содержимом раздачи: да
Треклист:
01. Foarjiersfers
02. Dûns Fan De Siedden
03. Nei Hu^s
04. Foarsizzing
05. Balts
06. Awaiting
07. Eftereach
08. Lit Los
09. Tichter
10. Wetterjuffer
11. De Brulloft
Видео для аппетита:
Доп. информация: Wiki | Официальный сайт
 
Photos

Нинке Лаверман родом из Фрисландии и она исполняет свои песни на фризском языке, на котором говорят только в северной части Нидерландов, и который, по мнению лингвистов, находится где-то на полпути между английским и голландским. Патриоты фризского настаивают на том факте, что язык практически не менялся со средних веков и является чуть ли не единственным сохранившимся на континенте близким родственником саксонских языков. Как бы там ни было Нинке с детства была увлечена историей родного края и с не предвзятым пристрастием изучала литературное наследие фризских поэтов. В 2002 году она закончила школу исполнительских искусств в Амстердаме. Уже во время работы над своим первым диском Sielesâlt («Соль души», 2004) она обозначила свой музыкальный стиль как «фризское фаду». Для нескольких композиций дебютного альбома Нинке перевела тексты известного нидерландского поэта Яна Якоба Слауэрхофа на фризский. Чистота этих песен быстро нашла отклик у широкой аудитории, альбом стал «золотым» в своей стране и, ко всему еще, Нинке получила литературную премию за свои переводы. В 2005 году, предприняв предварительно поездку в Мексику она записала свой второй альбом De Maisfrou, наполненный мексиканскими, кубинскими и аргентинскими мотивами. Во время записи своего третьего альбома Nomade Нинке совершила поездку в Монголию, где она более месяца прожила в степях с кочевой семьей, черпая вдохновение и напитываясь энергетикой новых земель. При этом она продолжала писать новый репертуар (на этот раз на собственные стихи) в творческом тандеме с гитаристом Уордом Уинстра (Ward Veenstra) и исландским продюсером Валгером Сигурдссоном (Valgeir Sigurdsson), известным по работе с группами Mum и CocoRosie. Альбом Nomade в 2010 году был награжден престижной голландской музыкальной премией Edison (ранее – Edison Music Award). Новое творение Нинке Лаверман Alter («Алтарь», 2013) было записано под чутким руководством испанского продюсера и гитариста Хавьера Лимона, работавшего со многими культовыми музыкантами, такими как Пако де Лусия, Бебо Вальдес, Диего Эль Сигала, Конча Буйка, Энрике Моренте, Ясмин Леви, Мариза, Анушка Шанкар.
 
Лог создания рипа
X Lossless Decoder version 20130127 (142.3)
XLD extraction logfile from 2013-05-21 16:10:59 +0200
Nynke / Alter
Used drive : OPTIARC DVD RW AD-5680H (revision 3AHB)
Media type : Pressed CD
Ripper mode : XLD Secure Ripper
Disable audio cache : OK for the drive with a cache less than 1375KiB
Make use of C2 pointers : NO
Read offset correction : 48
Max retry count : 20
Gap status : Analyzed, Appended (except HTOA)
TOC of the extracted CD
Track | Start | Length | Start sector | End sector
---------------------------------------------------------
1 | 00:00:00 | 03:50:71 | 0 | 17320
2 | 03:50:71 | 04:30:01 | 17321 | 37571
3 | 08:20:72 | 04:56:25 | 37572 | 59796
4 | 13:17:22 | 03:18:14 | 59797 | 74660
5 | 16:35:36 | 05:21:73 | 74661 | 98808
6 | 21:57:34 | 04:04:08 | 98809 | 117116
7 | 26:01:42 | 04:54:24 | 117117 | 139190
8 | 30:55:66 | 04:01:54 | 139191 | 157319
9 | 34:57:45 | 03:22:29 | 157320 | 172498
10 | 38:19:74 | 04:06:34 | 172499 | 190982
11 | 42:26:33 | 04:45:08 | 190983 | 212365
AccurateRip Summary
Disc not found in AccurateRip DB.
All Tracks
Album gain : -5.27 dB
Peak : 1.000000
Statistics
Read error : 0
Jitter error (maybe fixed) : 0
Retry sector count : 0
Damaged sector count : 0
Track 01
Filename : /Volumes/FirewireHitachi/XLD-Output/Nynke - Alter (2013) [AIFF]/01 Foarjiersfers.aiff
/Volumes/FirewireHitachi/XLD-Output/Nynke - Alter (2013) [FLAC]/01 Foarjiersfers.flac
/Volumes/FirewireHitachi/XLD-Output/Nynke - Alter (2013) [MP3 V0]/01 Foarjiersfers.mp3
/Volumes/FirewireHitachi/XLD-Output/Nynke - Alter (2013) [MP3 V2]/01 Foarjiersfers.mp3
/Volumes/FirewireHitachi/XLD-Output/Nynke - Alter (2013) [MP3 320]/01 Foarjiersfers.mp3
Pre-gap length : 00:02:00
Track gain : -5.03 dB
Peak : 1.000000
CRC32 hash (test run) : A99A5E27
CRC32 hash : A99A5E27
CRC32 hash (skip zero) : 696D9B69
AccurateRip v1 signature : B0A81AE0
AccurateRip v2 signature : A8A94E62
->Track not present in AccurateRip database.
Statistics
Read error : 0
Jitter error (maybe fixed) : 0
Retry sector count : 0
Damaged sector count : 0
Track 02
Filename : /Volumes/FirewireHitachi/XLD-Output/Nynke - Alter (2013) [AIFF]/02 Dûns Fan De Siedden.aiff
/Volumes/FirewireHitachi/XLD-Output/Nynke - Alter (2013) [FLAC]/02 Dûns Fan De Siedden.flac
/Volumes/FirewireHitachi/XLD-Output/Nynke - Alter (2013) [MP3 V0]/02 Dûns Fan De Siedden.mp3
/Volumes/FirewireHitachi/XLD-Output/Nynke - Alter (2013) [MP3 V2]/02 Dûns Fan De Siedden.mp3
/Volumes/FirewireHitachi/XLD-Output/Nynke - Alter (2013) [MP3 320]/02 Dûns Fan De Siedden.mp3
Track gain : -5.77 dB
Peak : 1.000000
CRC32 hash (test run) : 80D500CF
CRC32 hash : 80D500CF
CRC32 hash (skip zero) : 74512378
AccurateRip v1 signature : AA486DB0
AccurateRip v2 signature : 082D9A7F
->Track not present in AccurateRip database.
Statistics
Read error : 0
Jitter error (maybe fixed) : 0
Retry sector count : 0
Damaged sector count : 0
Track 03
Filename : /Volumes/FirewireHitachi/XLD-Output/Nynke - Alter (2013) [AIFF]/03 Nei Hu^s.aiff
/Volumes/FirewireHitachi/XLD-Output/Nynke - Alter (2013) [FLAC]/03 Nei Hu^s.flac
/Volumes/FirewireHitachi/XLD-Output/Nynke - Alter (2013) [MP3 V0]/03 Nei Hu^s.mp3
/Volumes/FirewireHitachi/XLD-Output/Nynke - Alter (2013) [MP3 V2]/03 Nei Hu^s.mp3
/Volumes/FirewireHitachi/XLD-Output/Nynke - Alter (2013) [MP3 320]/03 Nei Hu^s.mp3
Track gain : -7.25 dB
Peak : 1.000000
CRC32 hash (test run) : 09F0DCE5
CRC32 hash : 09F0DCE5
CRC32 hash (skip zero) : 794D5F37
AccurateRip v1 signature : CC0434A4
AccurateRip v2 signature : A541E6F0
->Track not present in AccurateRip database.
Statistics
Read error : 0
Jitter error (maybe fixed) : 0
Retry sector count : 0
Damaged sector count : 0
Track 04
Filename : /Volumes/FirewireHitachi/XLD-Output/Nynke - Alter (2013) [AIFF]/04 Foarsizzing.aiff
/Volumes/FirewireHitachi/XLD-Output/Nynke - Alter (2013) [FLAC]/04 Foarsizzing.flac
/Volumes/FirewireHitachi/XLD-Output/Nynke - Alter (2013) [MP3 V0]/04 Foarsizzing.mp3
/Volumes/FirewireHitachi/XLD-Output/Nynke - Alter (2013) [MP3 V2]/04 Foarsizzing.mp3
/Volumes/FirewireHitachi/XLD-Output/Nynke - Alter (2013) [MP3 320]/04 Foarsizzing.mp3
Track gain : -3.61 dB
Peak : 1.000000
CRC32 hash (test run) : FB412230
CRC32 hash : FB412230
CRC32 hash (skip zero) : 25170D91
AccurateRip v1 signature : 8699D2D9
AccurateRip v2 signature : FC6F796D
->Track not present in AccurateRip database.
Statistics
Read error : 0
Jitter error (maybe fixed) : 0
Retry sector count : 0
Damaged sector count : 0
Track 05
Filename : /Volumes/FirewireHitachi/XLD-Output/Nynke - Alter (2013) [AIFF]/05 Balts.aiff
/Volumes/FirewireHitachi/XLD-Output/Nynke - Alter (2013) [FLAC]/05 Balts.flac
/Volumes/FirewireHitachi/XLD-Output/Nynke - Alter (2013) [MP3 V0]/05 Balts.mp3
/Volumes/FirewireHitachi/XLD-Output/Nynke - Alter (2013) [MP3 V2]/05 Balts.mp3
/Volumes/FirewireHitachi/XLD-Output/Nynke - Alter (2013) [MP3 320]/05 Balts.mp3
Track gain : -3.95 dB
Peak : 1.000000
CRC32 hash (test run) : DA235C29
CRC32 hash : DA235C29
CRC32 hash (skip zero) : 3C8A338E
AccurateRip v1 signature : F1C71940
AccurateRip v2 signature : 9B9232F4
->Track not present in AccurateRip database.
Statistics
Read error : 0
Jitter error (maybe fixed) : 0
Retry sector count : 0
Damaged sector count : 0
Track 06
Filename : /Volumes/FirewireHitachi/XLD-Output/Nynke - Alter (2013) [AIFF]/06 Awaiting.aiff
/Volumes/FirewireHitachi/XLD-Output/Nynke - Alter (2013) [FLAC]/06 Awaiting.flac
/Volumes/FirewireHitachi/XLD-Output/Nynke - Alter (2013) [MP3 V0]/06 Awaiting.mp3
/Volumes/FirewireHitachi/XLD-Output/Nynke - Alter (2013) [MP3 V2]/06 Awaiting.mp3
/Volumes/FirewireHitachi/XLD-Output/Nynke - Alter (2013) [MP3 320]/06 Awaiting.mp3
Track gain : -2.78 dB
Peak : 0.999969
CRC32 hash (test run) : F41C0AB1
CRC32 hash : F41C0AB1
CRC32 hash (skip zero) : 4A89A81D
AccurateRip v1 signature : 60F23000
AccurateRip v2 signature : FA83BC4B
->Track not present in AccurateRip database.
Statistics
Read error : 0
Jitter error (maybe fixed) : 0
Retry sector count : 0
Damaged sector count : 0
Track 07
Filename : /Volumes/FirewireHitachi/XLD-Output/Nynke - Alter (2013) [AIFF]/07 Eftereach.aiff
/Volumes/FirewireHitachi/XLD-Output/Nynke - Alter (2013) [FLAC]/07 Eftereach.flac
/Volumes/FirewireHitachi/XLD-Output/Nynke - Alter (2013) [MP3 V0]/07 Eftereach.mp3
/Volumes/FirewireHitachi/XLD-Output/Nynke - Alter (2013) [MP3 V2]/07 Eftereach.mp3
/Volumes/FirewireHitachi/XLD-Output/Nynke - Alter (2013) [MP3 320]/07 Eftereach.mp3
Track gain : -5.84 dB
Peak : 1.000000
CRC32 hash (test run) : A70B5BB8
CRC32 hash : A70B5BB8
CRC32 hash (skip zero) : D4E48034
AccurateRip v1 signature : 7FCAB038
AccurateRip v2 signature : 97A344D7
->Track not present in AccurateRip database.
Statistics
Read error : 0
Jitter error (maybe fixed) : 0
Retry sector count : 0
Damaged sector count : 0
Track 08
Filename : /Volumes/FirewireHitachi/XLD-Output/Nynke - Alter (2013) [AIFF]/08 Lit Los.aiff
/Volumes/FirewireHitachi/XLD-Output/Nynke - Alter (2013) [FLAC]/08 Lit Los.flac
/Volumes/FirewireHitachi/XLD-Output/Nynke - Alter (2013) [MP3 V0]/08 Lit Los.mp3
/Volumes/FirewireHitachi/XLD-Output/Nynke - Alter (2013) [MP3 V2]/08 Lit Los.mp3
/Volumes/FirewireHitachi/XLD-Output/Nynke - Alter (2013) [MP3 320]/08 Lit Los.mp3
Track gain : -3.90 dB
Peak : 0.942535
CRC32 hash (test run) : 042999B0
CRC32 hash : 042999B0
CRC32 hash (skip zero) : B45FAAEB
AccurateRip v1 signature : 2D56A2D9
AccurateRip v2 signature : 79917089
->Track not present in AccurateRip database.
Statistics
Read error : 0
Jitter error (maybe fixed) : 0
Retry sector count : 0
Damaged sector count : 0
Track 09
Filename : /Volumes/FirewireHitachi/XLD-Output/Nynke - Alter (2013) [AIFF]/09 Tichter.aiff
/Volumes/FirewireHitachi/XLD-Output/Nynke - Alter (2013) [FLAC]/09 Tichter.flac
/Volumes/FirewireHitachi/XLD-Output/Nynke - Alter (2013) [MP3 V0]/09 Tichter.mp3
/Volumes/FirewireHitachi/XLD-Output/Nynke - Alter (2013) [MP3 V2]/09 Tichter.mp3
/Volumes/FirewireHitachi/XLD-Output/Nynke - Alter (2013) [MP3 320]/09 Tichter.mp3
Track gain : -5.05 dB
Peak : 1.000000
CRC32 hash (test run) : 7A1BB4A1
CRC32 hash : 7A1BB4A1
CRC32 hash (skip zero) : 355890BD
AccurateRip v1 signature : EDD4604D
AccurateRip v2 signature : 132B6DA2
->Track not present in AccurateRip database.
Statistics
Read error : 0
Jitter error (maybe fixed) : 0
Retry sector count : 0
Damaged sector count : 0
Track 10
Filename : /Volumes/FirewireHitachi/XLD-Output/Nynke - Alter (2013) [AIFF]/10 Wetterjuffer.aiff
/Volumes/FirewireHitachi/XLD-Output/Nynke - Alter (2013) [FLAC]/10 Wetterjuffer.flac
/Volumes/FirewireHitachi/XLD-Output/Nynke - Alter (2013) [MP3 V0]/10 Wetterjuffer.mp3
/Volumes/FirewireHitachi/XLD-Output/Nynke - Alter (2013) [MP3 V2]/10 Wetterjuffer.mp3
/Volumes/FirewireHitachi/XLD-Output/Nynke - Alter (2013) [MP3 320]/10 Wetterjuffer.mp3
Track gain : -6.44 dB
Peak : 1.000000
CRC32 hash (test run) : 0704856F
CRC32 hash : 0704856F
CRC32 hash (skip zero) : A5289C9C
AccurateRip v1 signature : AD86A9A4
AccurateRip v2 signature : 9A16F214
->Track not present in AccurateRip database.
Statistics
Read error : 0
Jitter error (maybe fixed) : 0
Retry sector count : 0
Damaged sector count : 0
Track 11
Filename : /Volumes/FirewireHitachi/XLD-Output/Nynke - Alter (2013) [AIFF]/11 De Brulloft.aiff
/Volumes/FirewireHitachi/XLD-Output/Nynke - Alter (2013) [FLAC]/11 De Brulloft.flac
/Volumes/FirewireHitachi/XLD-Output/Nynke - Alter (2013) [MP3 V0]/11 De Brulloft.mp3
/Volumes/FirewireHitachi/XLD-Output/Nynke - Alter (2013) [MP3 V2]/11 De Brulloft.mp3
/Volumes/FirewireHitachi/XLD-Output/Nynke - Alter (2013) [MP3 320]/11 De Brulloft.mp3
Track gain : -3.84 dB
Peak : 0.955780
CRC32 hash (test run) : 16A416DB
CRC32 hash : 16A416DB
CRC32 hash (skip zero) : D3D44C2F
AccurateRip v1 signature : 9208C1D2
AccurateRip v2 signature : CA97E60C
->Track not present in AccurateRip database.
Statistics
Read error : 0
Jitter error (maybe fixed) : 0
Retry sector count : 0
Damaged sector count : 0
No errors occurred
End of status report
 
Содержание индексной карты (.CUE)
TITLE "Alter"
PERFORMER "Nynke"
REM GENRE "Traditional"
REM DATE "2013"
REM DISCNUMBER 1
REM TOTALDISCS 1
REM DISCID A10B0F0B
REM REPLAYGAIN_ALBUM_GAIN -5.27 dB
REM REPLAYGAIN_ALBUM_PEAK 1.000000
FILE "01 Foarjiersfers.wav" WAVE
TRACK 01 AUDIO
TITLE "Foarjiersfers"
SONGWRITER "Ward Veenstra/Nynke Laverman"
ISRC BE6F51300210
REM REPLAYGAIN_TRACK_GAIN -5.03 dB
REM REPLAYGAIN_TRACK_PEAK 1.000000
INDEX 01 00:00:00
FILE "02 Dûns Fan De Siedden.wav" WAVE
TRACK 02 AUDIO
TITLE "Dûns Fan De Siedden"
SONGWRITER "Nynke Laverman"
ISRC BE6F51300260
REM REPLAYGAIN_TRACK_GAIN -5.77 dB
REM REPLAYGAIN_TRACK_PEAK 1.000000
INDEX 01 00:00:00
FILE "03 Nei Hu^s.wav" WAVE
TRACK 03 AUDIO
TITLE "Nei Hu^s"
SONGWRITER "Nynke Laverman"
ISRC BE6F51300220
REM REPLAYGAIN_TRACK_GAIN -7.25 dB
REM REPLAYGAIN_TRACK_PEAK 1.000000
INDEX 01 00:00:00
FILE "04 Foarsizzing.wav" WAVE
TRACK 04 AUDIO
TITLE "Foarsizzing"
SONGWRITER "Nynke Laverman/Ward Veenstra"
ISRC BE6F51300230
REM REPLAYGAIN_TRACK_GAIN -3.61 dB
REM REPLAYGAIN_TRACK_PEAK 1.000000
INDEX 01 00:00:00
FILE "05 Balts.wav" WAVE
TRACK 05 AUDIO
TITLE "Balts"
SONGWRITER "Nynke Laverman"
ISRC BE6F51300240
REM REPLAYGAIN_TRACK_GAIN -3.95 dB
REM REPLAYGAIN_TRACK_PEAK 1.000000
INDEX 01 00:00:00
FILE "06 Awaiting.wav" WAVE
TRACK 06 AUDIO
TITLE "Awaiting"
SONGWRITER "Nynke Laverman"
ISRC BE6F51300250
REM REPLAYGAIN_TRACK_GAIN -2.78 dB
REM REPLAYGAIN_TRACK_PEAK 0.999969
INDEX 01 00:00:00
FILE "07 Eftereach.wav" WAVE
TRACK 07 AUDIO
TITLE "Eftereach"
SONGWRITER "Nynke Laverman/Sytze Pruiksma"
ISRC BE6F51300270
REM REPLAYGAIN_TRACK_GAIN -5.84 dB
REM REPLAYGAIN_TRACK_PEAK 1.000000
INDEX 01 00:00:00
FILE "08 Lit Los.wav" WAVE
TRACK 08 AUDIO
TITLE "Lit Los"
SONGWRITER "Sytze Pruiksma/Nynke Laverman"
ISRC BE6F51300280
REM REPLAYGAIN_TRACK_GAIN -3.90 dB
REM REPLAYGAIN_TRACK_PEAK 0.942535
INDEX 01 00:00:00
FILE "09 Tichter.wav" WAVE
TRACK 09 AUDIO
TITLE "Tichter"
SONGWRITER "Nynke Laverman"
ISRC BE6F51300290
REM REPLAYGAIN_TRACK_GAIN -5.05 dB
REM REPLAYGAIN_TRACK_PEAK 1.000000
INDEX 01 00:00:00
FILE "10 Wetterjuffer.wav" WAVE
TRACK 10 AUDIO
TITLE "Wetterjuffer"
SONGWRITER "Nynke Laverman"
ISRC BE6F51300300
REM REPLAYGAIN_TRACK_GAIN -6.44 dB
REM REPLAYGAIN_TRACK_PEAK 1.000000
INDEX 01 00:00:00
FILE "11 De Brulloft.wav" WAVE
TRACK 11 AUDIO
TITLE "De Brulloft"
SONGWRITER "Lhasa De Sela"
ISRC BE6F51300310
REM REPLAYGAIN_TRACK_GAIN -3.84 dB
REM REPLAYGAIN_TRACK_PEAK 0.955780
INDEX 01 00:00:00
 
Об исполнителе
NYNKE LAVERMAN comes from Friesland which lies in the north of Holland. Friesland is a province with its own language. Nynke grew up there and Frisian is her first language. In 2002 she finished her studies at the School of Performing Arts in Amsterdam. On her first album SIELESÂLT (Salt of the soul, 2004) she introduced the ‘Frisian fado’, a combination that was never made before. She translated poems of the famous Dutch poet J.J. Slauerhoff into Frisian and sang them on Portuguese fado music. The melancholy and pureness of it touched a great audience, Nynke performed throughout the whole country and the album turned gold. In april 2005 she sang for queen Beatrix in the tv-show in honor of her silver government-jubilee and she launched the single Dat waarme hert.
From the pubs in Lisbon to the streets of Mexico City. Together with the Frisian poet Albertina Soepboer Nynke went to this raw city to develop her next album DE MAISFROU (The Cornwoman). Albertina wrote the main part of the lyrics. Mexican, Cuban and Argentinian influences entered the music and created a more exuberant album, on which Nynke shows more colors. Again in her native language, in Frisian. On the presentation of the album in May 2006 Nynke received the Piter Jelles-prize, a literary prize for her translations of the poems of Slauerhoff.
De Maisfrou toured for two seasons along the Dutch theatres and ended its tour in June 2007 with DE NACHT VAN DE MAISFROU (The Night of The Cornwoman). This last show was registred on camera and in November 2007 it was released on DVD and CD together with a documentary about De Maisfrou: DIT IS GJIN BEGJIN (This is not a start), that was made by Robertjan Brouwer and which had its premiere at the Northern Filmfestival in Leeuwarden. Earlier that year Nynke released the single Hambre del alma and she acted and sang the titelrole in the theatre-production Cecilia of the Dutch group Orkater. In July 2007 she and her musicians played in front of a completely sold out Concertgebouw in Amsterdam.
Time for a new adventure. Nynke got on the train to Mongolia and lived for a month with a nomadic family on the steppe in order to get the ideas for her third album, NOMADE. She wanted to stretch up her own boundaries again and set herself the goal to write all the lyrics herself this time. Her stay in this amazingly vast land, with people who continuously are moving on and who have a culture that is full of rituals and traditions, appeared to be fertile ground. In 2008 she took the time for the development of the album. After writing the lyrics, she made most of the songs together with guitarist Ward Veenstra. Western pop influences, Frisian fanfare elements and electronics popped up. She also took some international steps and worked together with the City of Prague Philharmonic Orchestra, with Icelandic producer/engineer Valgeir Sigurdsson who mixed a few songs, and with Tim Young (mastering, UK).
In the meantime she participated in short-term projects like 'Fado Blue' with Fernando Lameirinhas and JW Roy, 'In de ban van Bannink' with Holland Symfonia Orchestra and a tribute to Leonard Cohen in Frisian (CD/DVD), on which Nynke sings 'Hallelujah'. She also gave concerts with the Magogo Chamber Orchestra, with the Northern Dutch Orchestra (NNO) and with the Metropole Orchestra, and she performed for the Dutch royal family on Queensday 2008. On the 5th of May 2009 she participated as a soloist to the 5th of May-concert at the Amstel in Amsterdam.
On March the 14th the album NOMADE was released and that same day the concert tour through Holland started in the Muziekgebouw aan het IJ in Amsterdam.
 
Об альбоме
For Alter Nynke collaborated with the famous, multiple award-winning producer/guitarist Javier Limón from Spain. Nynke's vocal talents attracted his attention, he became fascinated by her original take on Mediterranean music and wanted to produce her new album. Javier Limón: “The music of the words in the Frisian language is very strong and in the songs you hear the sound of the landscape: the wide expanses, the long lines and the huge sky. Then there’s this exceptional voice: when Nynke starts to sing, something happens.” They combined a musical basis of flamenco rhythms & guitars with the characteristic percussion of Frisian percussionist/composer Sytze Pruiksma and the sound of the Noardske balke, an old traditional Frisian string instrument. ALTER was recorded and mixed by Salomé Limón in Casa Limón studio in Madrid. A handful of Spanish contributors took part in the recordings, including Manuel Machado on flügelhorn, Antonio Serrano on harmonica, Rafael Jiménez ‘El Chispas’ on cajón, flamenco singer Saúl Quirós and flamenco dancer Belén López.
 
Состав
Nynke Laverman - vocals
Javier Limón - flamenco guitar, bouzouki, oud
Sytze Pruiksma - percussion, marimba, noardske balke, piano
Manuel Machado - fluegelhorn
Tsjebbe Hettinga - voice / poetry
Antonio Serrano - harmonica
Rafael Jiménez ‘El Chispas’ - cajón
Saúl Quirós - flamenco vocals
Belén López - flamenco dancer
Produced by Javier Limón. The album was co-produced by Nynke and Sytze Pruiksma. Recorded and mixed by Salomé Limón in Casa Limón studio in Madrid.
11:15
329
Нет комментариев. Ваш будет первым!