Вы используете незарегистрированную версию компонента "Вкладки"!

Поиск

(Cuban Jazz / Latin) Omara Portuondo - Magia Negra - 1999, FLAC (tracks+.cue), lossless

(Cuban Jazz / Latin) Omara Portuondo - Magia Negra - 1999, FLAC (tracks+.cue), lossless
Треклист:
Omara Portuondo / Magia Negra
Жанр: Cuban Jazz / Latin
Страна-производитель диска: Colombia
Год издания альбома: 1958
Год издания диска: 1999
Издатель (лейбл): Yoyo Music / Colombia
Страна: Cuba
Аудиокодек: FLAC (*.flac)
Тип рипа: tracks+.cue
Битрейт аудио: lossless
Продолжительность: 00:32:28
Источник (релизер): собственный диск
Наличие сканов в содержимом раздачи: да
Треклист:
01 Magia negra
02 Adios
03 Oguere
04 Ya no me quieres
05 Llanto de luna
06 Noche cubana
07 Andalucia
08 Que emocion
09 El hombre que se fue
10 No hagas caso
11 No puedo ser feliz
12 Caravana
 
Лог создания рипа
Exact Audio Copy V1.0 beta 3 from 29. August 2011
EAC extraction logfile from 24. May 2013, 17:51
Omara Portuondo / Magia Negra
Used drive : TSSTcorpCDDVDW TS-L633C Adapter: 0 ID: 1
Read mode : Secure
Utilize accurate stream : Yes
Defeat audio cache : Yes
Make use of C2 pointers : No
Read offset correction : 6
Overread into Lead-In and Lead-Out : No
Fill up missing offset samples with silence : Yes
Delete leading and trailing silent blocks : No
Null samples used in CRC calculations : Yes
Used interface : Native Win32 interface for Win NT & 2000
Gap handling : Appended to previous track
Used output format : User Defined Encoder
Selected bitrate : 1024 kBit/s
Quality : High
Add ID3 tag : No
Command line compressor : C:\Program Files\Exact Audio Copy\FLAC\FLAC.EXE
Additional command line options : -6 -V -T "ARTIST=%artist%" -T "TITLE=%title%" -T "ALBUM=%albumtitle%" -T "DATE=%year%" -T "TRACKNUMBER=%tracknr%" -T "GENRE=%genre%" -T "COMMENT=%comment%" -T "BAND=%albuminterpret%" -T "ALBUMARTIST=%albuminterpret%" -T "COMPOSER=%composer%" %haslyrics%--tag-from-file=LYRICS="%lyricsfile%"%haslyrics% -T "DISCNUMBER=%cdnumber%" -T "TOTALDISCS=%totalcds%" -T "TOTALTRACKS=%numtracks%" %hascover%--picture="%coverfile%"%hascover% %source% -o %dest%
TOC of the extracted CD
Track | Start | Length | Start sector | End sector
---------------------------------------------------------
1 | 0:00.00 | 2:35.08 | 0 | 11632
2 | 2:35.08 | 2:12.13 | 11633 | 21545
3 | 4:47.21 | 3:02.65 | 21546 | 35260
4 | 7:50.11 | 2:35.20 | 35261 | 46905
5 | 10:25.31 | 2:40.41 | 46906 | 58946
6 | 13:05.72 | 3:28.58 | 58947 | 74604
7 | 16:34.55 | 4:00.63 | 74605 | 92667
8 | 20:35.43 | 2:01.60 | 92668 | 101802
9 | 22:37.28 | 2:22.41 | 101803 | 112493
10 | 24:59.69 | 2:53.44 | 112494 | 125512
11 | 27:53.38 | 1:55.39 | 125513 | 134176
12 | 29:49.02 | 2:21.40 | 134177 | 144791
Track 1
Filename C:\Users\Кактус\Desktop\Omara Portuondo - Magia Negra\01 Magia Negra.wav
Pre-gap length 0:00:02.00
Peak level 92.0 %
Extraction speed 1.5 X
Track quality 100.0 %
Test CRC 4F81F983
Copy CRC 4F81F983
Copy OK
Track 2
Filename C:\Users\Кактус\Desktop\Omara Portuondo - Magia Negra\02 Adios.wav
Pre-gap length 0:00:01.45
Peak level 87.8 %
Extraction speed 1.6 X
Track quality 100.0 %
Test CRC DF41248C
Copy CRC DF41248C
Copy OK
Track 3
Filename C:\Users\Кактус\Desktop\Omara Portuondo - Magia Negra\03 Oguere.wav
Pre-gap length 0:00:01.45
Peak level 84.9 %
Extraction speed 1.8 X
Track quality 100.0 %
Test CRC 4FAC89DD
Copy CRC 4FAC89DD
Copy OK
Track 4
Filename C:\Users\Кактус\Desktop\Omara Portuondo - Magia Negra\04 Ya No Me Quieres.wav
Pre-gap length 0:00:01.45
Peak level 81.9 %
Extraction speed 1.9 X
Track quality 100.0 %
Test CRC BEDCA897
Copy CRC BEDCA897
Copy OK
Track 5
Filename C:\Users\Кактус\Desktop\Omara Portuondo - Magia Negra\05 Llanto De Luna.wav
Pre-gap length 0:00:01.45
Peak level 93.7 %
Extraction speed 2.0 X
Track quality 100.0 %
Test CRC 3F582E7C
Copy CRC 3F582E7C
Copy OK
Track 6
Filename C:\Users\Кактус\Desktop\Omara Portuondo - Magia Negra\06 Noche Cubana.wav
Pre-gap length 0:00:01.45
Peak level 83.3 %
Extraction speed 2.2 X
Track quality 100.0 %
Test CRC 68509BAC
Copy CRC 68509BAC
Copy OK
Track 7
Filename C:\Users\Кактус\Desktop\Omara Portuondo - Magia Negra\07 Andalucia.wav
Pre-gap length 0:00:01.45
Peak level 96.4 %
Extraction speed 2.4 X
Track quality 100.0 %
Test CRC 4B0DBD34
Copy CRC 4B0DBD34
Copy OK
Track 8
Filename C:\Users\Кактус\Desktop\Omara Portuondo - Magia Negra\08 Que Emocion.wav
Pre-gap length 0:00:01.45
Peak level 86.8 %
Extraction speed 1.8 X
Track quality 99.9 %
Test CRC A61B1623
Copy CRC A61B1623
Copy OK
Track 9
Filename C:\Users\Кактус\Desktop\Omara Portuondo - Magia Negra\09 El Hombre Que Se Fue.wav
Pre-gap length 0:00:01.45
Peak level 87.6 %
Extraction speed 2.4 X
Track quality 100.0 %
Test CRC 77B25D92
Copy CRC 77B25D92
Copy OK
Track 10
Filename C:\Users\Кактус\Desktop\Omara Portuondo - Magia Negra\10 No Hagas Caso.wav
Pre-gap length 0:00:01.45
Peak level 90.6 %
Extraction speed 2.1 X
Track quality 99.9 %
Test CRC 747A014F
Copy CRC 747A014F
Copy OK
Track 11
Filename C:\Users\Кактус\Desktop\Omara Portuondo - Magia Negra\11 No Puedo Ser Feliz.wav
Pre-gap length 0:00:01.45
Peak level 80.5 %
Extraction speed 1.9 X
Track quality 99.9 %
Test CRC 9017AF7D
Copy CRC 9017AF7D
Copy OK
Track 12
Filename C:\Users\Кактус\Desktop\Omara Portuondo - Magia Negra\12 Caravana.wav
Pre-gap length 0:00:01.45
Peak level 79.3 %
Extraction speed 2.6 X
Track quality 100.0 %
Test CRC D55322A2
Copy CRC D55322A2
Copy OK
No errors occurred
End of status report
==== Log checksum 290C4BED7F6181F27333EAB569107007A1F71516414FD25377CC64D5B49B66CF ====
 
Содержание индексной карты (.CUE)
REM GENRE "Cuba Jazz"
REM DISCID B7078A0C
REM COMMENT "ExactAudioCopy v1.0b3"
PERFORMER "Omara Portuondo"
TITLE "Magia Negra"
FILE "01 Magia Negra.wav" WAVE
TRACK 01 AUDIO
TITLE "Magia Negra"
PERFORMER "Omara Portuondo"
INDEX 01 00:00:00
TRACK 02 AUDIO
TITLE "Adios"
PERFORMER "Omara Portuondo"
INDEX 00 02:33:38
FILE "02 Adios.wav" WAVE
INDEX 01 00:00:00
TRACK 03 AUDIO
TITLE "Oguere"
PERFORMER "Omara Portuondo"
INDEX 00 02:10:43
FILE "03 Oguere.wav" WAVE
INDEX 01 00:00:00
TRACK 04 AUDIO
TITLE "Ya No Me Quieres"
PERFORMER "Omara Portuondo"
INDEX 00 03:01:20
FILE "04 Ya No Me Quieres.wav" WAVE
INDEX 01 00:00:00
TRACK 05 AUDIO
TITLE "Llanto De Luna"
PERFORMER "Omara Portuondo"
INDEX 00 02:33:50
FILE "05 Llanto De Luna.wav" WAVE
INDEX 01 00:00:00
TRACK 06 AUDIO
TITLE "Noche Cubana"
PERFORMER "Omara Portuondo"
INDEX 00 02:38:71
FILE "06 Noche Cubana.wav" WAVE
INDEX 01 00:00:00
TRACK 07 AUDIO
TITLE "Andalucia"
PERFORMER "Omara Portuondo"
INDEX 00 03:27:13
FILE "07 Andalucia.wav" WAVE
INDEX 01 00:00:00
TRACK 08 AUDIO
TITLE "Que Emocion"
PERFORMER "Omara Portuondo"
INDEX 00 03:59:18
FILE "08 Que Emocion.wav" WAVE
INDEX 01 00:00:00
TRACK 09 AUDIO
TITLE "El Hombre Que Se Fue"
PERFORMER "Omara Portuondo"
INDEX 00 02:00:15
FILE "09 El Hombre Que Se Fue.wav" WAVE
INDEX 01 00:00:00
TRACK 10 AUDIO
TITLE "No Hagas Caso"
PERFORMER "Omara Portuondo"
INDEX 00 02:20:71
FILE "10 No Hagas Caso.wav" WAVE
INDEX 01 00:00:00
TRACK 11 AUDIO
TITLE "No Puedo Ser Feliz"
PERFORMER "Omara Portuondo"
INDEX 00 02:51:74
FILE "11 No Puedo Ser Feliz.wav" WAVE
INDEX 01 00:00:00
TRACK 12 AUDIO
TITLE "Caravana"
PERFORMER "Omara Portuondo"
INDEX 00 01:53:69
FILE "12 Caravana.wav" WAVE
INDEX 01 00:00:00
Сидирование раздачи - лучшее спасибо
Any questions - support@pro-jazz.com.
Есть вопросы - support@pro-jazz.com
12:16
272
Нет комментариев. Ваш будет первым!