Поиск

(World Fusion, Ethnic Jazz) Mukta - Jade - 2000, FLAC (tracks+.cue), lossless

(World Fusion, Ethnic Jazz) Mukta - Jade - 2000, FLAC (tracks+.cue), lossless
Треклист:
Mukta - Jade
Жанр: World Fusion, Ethnic Jazz
Год выпуска диска: 2000
Производитель диска: UK
Аудио кодек: FLAC
Тип рипа: tracks+.cue
Битрейт аудио: lossless
Продолжительность: 58:11
Трэклист:
1. Jade / Part.1 / Source 5.07
2. Jade / Part.2 / Jewel 4.08
3. Shady Side 3.58
4. Lyra 6.41
5. Slava 4.12
6. Elephant Dance 7.32
7. Crescent Moon 4.53
8. Guanabacoa 6.53
9. Iris 8.23
10. Song for Yewa 3.37
11. Lullaby For Nathan 2.47
Доп. информация: Мелодичный этно-джаз-фьюжн с индийскими и африканскими мотивами, традиционные джазовые инструменты здесь перекликаются с восточными и латиноамериканскими, чтоб вместе создать особую музыкальную атмосферу этого альбома.
Рип мой.
 
Отчёт EAC
EAC extraction logfile from 10. January 2010, 10:18 for CD
Mukta / Jade
Used drive : TEAC DW-224E-C Adapter: 0 ID: 1
Read mode : Secure with NO C2, accurate stream, disable cache
Read offset correction : 102
Overread into Lead-In and Lead-Out : No
Used output format : C:\Program Files\FLAC\flac.exe (User Defined Encoder)
128 kBit/s
Additional command line options : -8 -V -T "ARTIST=%a" -T "TITLE=%t" -T "ALBUM=%g" -T "DATE=%y" -T "TRACKNUMBER=%n" -T "GENRE=%m" -T "COMMENT=EAC FLAC -8" %s
Other options :
Fill up missing offset samples with silence : Yes
Delete leading and trailing silent blocks : No
Installed external ASPI interface
Track 1
Filename C:\mp3\Rips\Mukta - 2000 - Jade\01 - Jade - part 1 - source.wav
Pre-gap length 0:00:02.00
Peak level 100.0 %
Track quality 100.0 %
Test CRC 75AC6EA9
Copy CRC 75AC6EA9
Copy OK
Track 2
Filename C:\mp3\Rips\Mukta - 2000 - Jade\02 - Jade - part 2 - jewel.wav
Peak level 100.0 %
Track quality 100.0 %
Test CRC 347DFC56
Copy CRC 347DFC56
Copy OK
Track 3
Filename C:\mp3\Rips\Mukta - 2000 - Jade\03 - Shady side.wav
Pre-gap length 0:00:02.00
Peak level 100.0 %
Track quality 100.0 %
Test CRC 0D102A12
Copy CRC 0D102A12
Copy OK
Track 4
Filename C:\mp3\Rips\Mukta - 2000 - Jade\04 - Lyra.wav
Pre-gap length 0:00:01.98
Peak level 100.0 %
Track quality 100.0 %
Test CRC 1E3A756A
Copy CRC 1E3A756A
Copy OK
Track 5
Filename C:\mp3\Rips\Mukta - 2000 - Jade\05 - Slava.wav
Pre-gap length 0:00:01.98
Peak level 89.1 %
Track quality 99.9 %
Test CRC 82CDFB8E
Copy CRC 82CDFB8E
Copy OK
Track 6
Filename C:\mp3\Rips\Mukta - 2000 - Jade\06 - Elephant Dance.wav
Pre-gap length 0:00:01.98
Peak level 100.0 %
Track quality 99.9 %
Test CRC D297C909
Copy CRC D297C909
Copy OK
Track 7
Filename C:\mp3\Rips\Mukta - 2000 - Jade\07 - Crescent moon.wav
Pre-gap length 0:00:02.62
Peak level 100.0 %
Track quality 100.0 %
Test CRC ACB86F61
Copy CRC ACB86F61
Copy OK
Track 8
Filename C:\mp3\Rips\Mukta - 2000 - Jade\08 - Guanabacoa.wav
Pre-gap length 0:00:00.28
Peak level 100.0 %
Track quality 100.0 %
Test CRC 0D9FBC65
Copy CRC 0D9FBC65
Copy OK
Track 9
Filename C:\mp3\Rips\Mukta - 2000 - Jade\09 - Iris.wav
Pre-gap length 0:00:01.50
Peak level 100.0 %
Track quality 100.0 %
Test CRC A5A0F834
Copy CRC A5A0F834
Copy OK
Track 10
Filename C:\mp3\Rips\Mukta - 2000 - Jade\10 - Song for Yewa.wav
Pre-gap length 0:00:01.86
Peak level 100.0 %
Track quality 100.0 %
Test CRC 60989B75
Copy CRC 60989B75
Copy OK
Track 11
Filename C:\mp3\Rips\Mukta - 2000 - Jade\11 - Lullaby for Nathan.wav
Pre-gap length 0:00:03.77
Peak level 100.0 %
Track quality 100.0 %
Test CRC BEEF792D
Copy CRC BEEF792D
Copy OK
No errors occured
End of status report
12:05
356
Нет комментариев. Ваш будет первым!