Поиск

(Smooth Jazz / Latin Jazz) Humberto Ramirez Presents Smooth Latin Jazz - 2007, APE (image+.cue), lossless

(Smooth Jazz / Latin Jazz) Humberto Ramirez Presents Smooth Latin Jazz - 2007, APE (image+.cue), lossless
Треклист:
Humberto Ramirez Presents Smooth Latin Jazz
Жанр: Smooth Jazz / Latin Jazz
Год выпуска диска: 2007
Производитель диска: Nilpo Music (Spain)
Аудио кодек: APE
Тип рипа: image+.cue
Битрейт аудио: lossless
Продолжительность: 47:50
Трэклист:
1. The Shadow of Your Smile (5:32)
2. A Smile From You (5:22)
3. Obsesion (5:54)
4. Transcendental (8:15)
5. When I Fall In Love (4:59)
6. Despues D`esto (7:38)
7. Touch of Feeling (6:20)
8. Una Mirada (3:50)
 
Отчёт EAC
Exact Audio Copy V0.99 prebeta 4 from 23. January 2008
Отчёт EAC об извлечении, выполненном 9. декабря 2009, 20:26
Humberto Ramirez / Presents Smooth Latin Jazz
Дисковод: Optiarc DVD RW AD-7190A Adapter: 0 ID: 0
Режим чтения : Достоверность
Использование точного потока : Да
Отключение кэша аудио : Да
Использование указателей C2 : Нет
Коррекция смещения при чтении : 6
Способность читать области Lead-in и Lead-out : Нет
Заполнение пропущенных сэмплов тишиной : Да
Удаление блоков с тишиной в начале и конце : Нет
При вычислениях CRC использовались нулевые сэмплы : Да
Интерфейс : Встроенный Win32-интерфейс для Win NT/2000
Выходной формат : Внутренние WAV-операции
Формат сэмплов : 44.100 Гц; 16 бит; стерео
TOC извлечённого CD
Трек | Старт | Длительность | Начальный сектор | Конечный сектор
---------------------------------------------------------------------
1 | 0:00.00 | 5:32.12 | 0 | 24911
2 | 5:32.12 | 5:21.71 | 24912 | 49057
3 | 10:54.08 | 5:54.40 | 49058 | 75647
4 | 16:48.48 | 8:14.56 | 75648 | 112753
5 | 25:03.29 | 4:59.40 | 112754 | 135218
6 | 30:02.69 | 7:38.00 | 135219 | 169568
7 | 37:40.69 | 6:19.20 | 169569 | 198013
8 | 44:00.14 | 3:50.58 | 198014 | 215321
Характеристики диапазона извлечения и сообщения об ошибках
Выбранный диапазон
Имя файла F:\Аудио Lossless\Humberto Ramirez - Presents Smooth Latin Jazz (2007)\Humberto Ramirez - Presents Smooth Latin Jazz.wav
Пиковый уровень 98.8 %
Качество диапазона 100.0 %
CRC теста 4FDA5AA6
CRC копии 4FDA5AA6
Копирование... OK
Ошибок не произошло
AccurateRip: сводка
Трек 1 нет в базе данных
Трек 2 нет в базе данных
Трек 3 нет в базе данных
Трек 4 нет в базе данных
Трек 5 нет в базе данных
Трек 6 нет в базе данных
Трек 7 нет в базе данных
Трек 8 нет в базе данных
Ни одного трека нет в базе AccurateRip
Конец отчёта
Музыка для спокойного вечера или же воскресного утра Зарелизено на rutracker.org
Не забывайте говорить спасибо
Пожалуйста не уходите с раздачи
Download available for power users only.
11:05
236
Нет комментариев. Ваш будет первым!