Поиск

(Jazz / Latin Jazz, World Fusion) La Vienta - Дискография (3 CD, 1993-1996), APE (image+.cue), lossless

(Jazz / Latin Jazz, World Fusion) La Vienta - Дискография (3 CD, 1993-1996), APE (image+.cue), lossless
Треклист:
La Vienta - Дискография (3 CD, 1993-1996)
Жанр: Jazz / Latin Jazz, World Fusion
Производитель дисков: USA (TELARC)
Аудио кодек: APE
Тип рипа: image+.cue
Битрейт аудио: lossless
Продолжительность: 2:53:26
Доп. информация: Гитарный дуэт “La vienta” образовался в результате удачной встречи в холле Университета Техаса в Эль-Пасо. Испанский гитарист Mario Otero и европеец по происхождению Stefan Schyga объединили свои индивидуальные таланты для создания в 1993 году их дебютного альбома “Jazzmenco”, соединившего в себе элементы джаза, фламенко, классики, бразильской музыки и рока. Далее они продолжили свои успешные выступления созданием в 1994 году альбома “Night Dance” и альбома “Forgotten Romance” в 1996 году.
 
1993 - Jazzmenco
Год выпуска диска: 1993
Продолжительность: 1:07:24
Трэклист:
01. Tu Sonrisa (4:42)
02. Train to Paris (4:48)
03. Skeleton Samfa (3:26)
04. San Miguel (3:10)
05. Summer Rain (4:21)
06. Mecca (4:47)
07. My Desert Home (5:20)
08. Moroccan Face Dance (6:11)
09. Isle of Hope (5:10)
10. Spanish Invasion (5:29)
11. Paisano (3:50)
12. Legend of Triana (5:31)
13. Paco's Night Out (5:28)
14. Shores of Spain (5:13)
 
Лог EAC
Exact Audio Copy V0.99 prebeta 5 from 4. May 2009
EAC extraction logfile from 21. January 2010, 19:17
La Vienta / Jazzmenco
Used drive : SlimtypeDVD A DS8A1P Adapter: 1 ID: 0
Read mode : Secure
Utilize accurate stream : Yes
Defeat audio cache : Yes
Make use of C2 pointers : No
Read offset correction : 594
Overread into Lead-In and Lead-Out : No
Fill up missing offset samples with silence : Yes
Delete leading and trailing silent blocks : No
Null samples used in CRC calculations : Yes
Used interface : Native Win32 interface for Win NT & 2000
Used output format : Internal WAV Routines
Sample format : 44.100 Hz; 16 Bit; Stereo
TOC of the extracted CD
Track | Start | Length | Start sector | End sector
---------------------------------------------------------
1 | 0:00.00 | 4:41.50 | 0 | 21124
2 | 4:41.50 | 4:48.18 | 21125 | 42742
3 | 9:29.68 | 3:26.17 | 42743 | 58209
4 | 12:56.10 | 3:09.50 | 58210 | 72434
5 | 16:05.60 | 4:20.65 | 72435 | 91999
6 | 20:26.50 | 4:47.35 | 92000 | 113559
7 | 25:14.10 | 5:19.50 | 113560 | 137534
8 | 30:33.60 | 6:11.10 | 137535 | 165369
9 | 36:44.70 | 5:09.55 | 165370 | 188599
10 | 41:54.50 | 5:28.38 | 188600 | 213237
11 | 47:23.13 | 3:49.60 | 213238 | 230472
12 | 51:12.73 | 5:30.40 | 230473 | 255262
13 | 56:43.38 | 5:27.57 | 255263 | 279844
14 | 62:11.20 | 5:12.38 | 279845 | 303282
Range status and errors
Selected range
Filename H:\La Vienta - Jazzmenco (1993)\La Vienta - Jazzmenco (1993).wav
Peak level 100.0 %
Range quality 100.0 %
Copy CRC 17248D6E
Copy OK
No errors occurred
AccurateRip summary
Track 1 accurately ripped (confidence 4) [2AB87408]
Track 2 accurately ripped (confidence 3) [6DD9C17F]
Track 3 accurately ripped (confidence 5) [2186BC5B]
Track 4 accurately ripped (confidence 5) [B5D89140]
Track 5 accurately ripped (confidence 5) [19D93BEF]
Track 6 accurately ripped (confidence 4) [920031F3]
Track 7 accurately ripped (confidence 3) [E26E13FD]
Track 8 accurately ripped (confidence 4) [B0B04EA8]
Track 9 accurately ripped (confidence 5) [898246E1]
Track 10 accurately ripped (confidence 4) [DA5B1F7B]
Track 11 accurately ripped (confidence 4) [7ED55094]
Track 12 accurately ripped (confidence 4) [A09B4242]
Track 13 accurately ripped (confidence 5) [C013743A]
Track 14 accurately ripped (confidence 5) [0D7A18C3]
All tracks accurately ripped
End of status report
 
Отчет auCDtest
auCDtect: CD records authenticity detector, version 0.8.2
Copyright (c) 2004 Oleg Berngardt. All rights reserved.
Copyright (c) 2004 Alexander Djourik. All rights reserved.
------------------------------------------------------------
Processing file: [La Vienta - Jazzmenco (1993).wav]
Data analysis: [100%]
------------------------------------------------------------
This track looks like CDDA with probability 100%
 
Отчет WavCRC
EAC wavcrc32 v0.22 (c) ]DichlofoS[ Systems, 2007
thanx to: BakLAN, siro and other beta-testers/contributors!
file opened ok
RIFF header checked ok
please wait while couning checksums...
processing 178330404 samples...
file closed ok
--- used in EAC:
generic: grabbing, "no use..." off [all bytes] : 17248D6E.
generic: grabbing, "no use..." on [word nulsamples l/r] : 59B90194.
waveditor [word nulsamples l] : C8BA80A7.
--- no used in EAC, only for reference:
byte ignore zeros : A646FE6B.
dword nulsamples : E4C5D524.
---
time elapsed: 53656 ms
 
1994 - Night Dance
Год выпуска диска: 1994
Продолжительность: 53:57
Трэклист:
01. The Journey (3:42)
02. Love for Isabel (4:51)
03. Ariana (3:17)
04. Tranquillo (3:31)
05. El Gato Negro (5:04)
06. Ojo Caliente (4:50)
07. Carnival (5:18)
08. Beto's Turn (3:33)
09. Goodbye Tomorrow (4:57)
10. En la Coeva (5:09)
11. Promise of St. Matthew (4:56)
12. Samba Loco (4:49)
 
Лог EAC
Exact Audio Copy V0.99 prebeta 5 from 4. May 2009
EAC extraction logfile from 21. January 2010, 19:53
La Vienta - Mario Otero, Stefan Schyga / Night Dance
Used drive : SlimtypeDVD A DS8A1P Adapter: 1 ID: 0
Read mode : Secure
Utilize accurate stream : Yes
Defeat audio cache : Yes
Make use of C2 pointers : No
Read offset correction : 594
Overread into Lead-In and Lead-Out : No
Fill up missing offset samples with silence : Yes
Delete leading and trailing silent blocks : No
Null samples used in CRC calculations : Yes
Used interface : Native Win32 interface for Win NT & 2000
Used output format : Internal WAV Routines
Sample format : 44.100 Hz; 16 Bit; Stereo
TOC of the extracted CD
Track | Start | Length | Start sector | End sector
---------------------------------------------------------
1 | 0:00.00 | 3:42.13 | 0 | 16662
2 | 3:42.13 | 4:51.35 | 16663 | 38522
3 | 8:33.48 | 3:17.20 | 38523 | 53317
4 | 11:50.68 | 3:31.20 | 53318 | 69162
5 | 15:22.13 | 5:03.60 | 69163 | 91947
6 | 20:25.73 | 4:49.57 | 91948 | 113679
7 | 25:15.55 | 5:17.50 | 113680 | 137504
8 | 30:33.30 | 3:32.65 | 137505 | 153469
9 | 34:06.20 | 4:57.33 | 153470 | 175777
10 | 39:03.53 | 5:08.50 | 175778 | 198927
11 | 44:12.28 | 4:55.42 | 198928 | 221094
12 | 49:07.70 | 4:48.43 | 221095 | 242737
Range status and errors
Selected range
Filename H:\La Vienta - Night Dance (1994)\La Vienta - Night Dance (1994).wav
Peak level 100.0 %
Range quality 100.0 %
Copy CRC F0F89F42
Copy OK
No errors occurred
AccurateRip summary
Track 1 accurately ripped (confidence 2) [B84961FE]
Track 2 accurately ripped (confidence 2) [50DD307A]
Track 3 accurately ripped (confidence 2) [083579F5]
Track 4 accurately ripped (confidence 2) [BEC2C8F4]
Track 5 accurately ripped (confidence 2) [3337A3EB]
Track 6 accurately ripped (confidence 2) [CFB02426]
Track 7 accurately ripped (confidence 2) [F0A8CB95]
Track 8 accurately ripped (confidence 2) [40B19F6E]
Track 9 accurately ripped (confidence 2) [AAC01FAF]
Track 10 accurately ripped (confidence 2) [D606A01C]
Track 11 accurately ripped (confidence 2) [120F87E9]
Track 12 accurately ripped (confidence 2) [35C94544]
All tracks accurately ripped
End of status report
 
Отчет auCDtest
auCDtect: CD records authenticity detector, version 0.8.2
Copyright (c) 2004 Oleg Berngardt. All rights reserved.
Copyright (c) 2004 Alexander Djourik. All rights reserved.
------------------------------------------------------------
Processing file: [La Vienta - Night Dance (1994).wav]
Data analysis: [100%]
------------------------------------------------------------
This track looks like CDDA with probability 100%
 
Отчет WavCRC
EAC wavcrc32 v0.22 (c) ]DichlofoS[ Systems, 2007
thanx to: BakLAN, siro and other beta-testers/contributors!
file opened ok
RIFF header checked ok
please wait while couning checksums...
processing 142729944 samples...
file closed ok
--- used in EAC:
generic: grabbing, "no use..." off [all bytes] : F0F89F42.
generic: grabbing, "no use..." on [word nulsamples l/r] : 00562037.
waveditor [word nulsamples l] : 39018C99.
--- no used in EAC, only for reference:
byte ignore zeros : FFA9DFC8.
dword nulsamples : 9390B92E.
---
time elapsed: 52062 ms
 
1996 - Forgotten Romance
Год выпуска диска: 1996
Продолжительность: 52:05
Трэклист:
01. Best Friends (4:11)
02. Night of Desire (4:46)
03. Wedding in Mexico (4:13)
04. Sweet Turquoise (3:23)
05. Nino (3:53)
06. I'll Never Forget You (4:07)
07. Ziba (6:16)
08. Milky Way (3:36)
09. Dream Come True (3:51)
10. Coyote (5:06)
11. Guitarras Romanticas (2:59)
12. Forgotten Romance (5:44)
 
Лог EAC
Exact Audio Copy V0.99 prebeta 5 from 4. May 2009
EAC extraction logfile from 21. January 2010, 20:25
La Vienta / Forgotten Romance
Used drive : SlimtypeDVD A DS8A1P Adapter: 1 ID: 0
Read mode : Secure
Utilize accurate stream : Yes
Defeat audio cache : Yes
Make use of C2 pointers : No
Read offset correction : 594
Overread into Lead-In and Lead-Out : No
Fill up missing offset samples with silence : Yes
Delete leading and trailing silent blocks : No
Null samples used in CRC calculations : Yes
Used interface : Native Win32 interface for Win NT & 2000
Used output format : Internal WAV Routines
Sample format : 44.100 Hz; 16 Bit; Stereo
TOC of the extracted CD
Track | Start | Length | Start sector | End sector
---------------------------------------------------------
1 | 0:00.00 | 4:11.10 | 0 | 18834
2 | 4:11.10 | 4:46.00 | 18835 | 40284
3 | 8:57.10 | 4:13.30 | 40285 | 59289
4 | 13:10.40 | 3:23.02 | 59290 | 74516
5 | 16:33.42 | 3:52.58 | 74517 | 91974
6 | 20:26.25 | 4:07.05 | 91975 | 110504
7 | 24:33.30 | 6:16.02 | 110505 | 138706
8 | 30:49.32 | 3:35.48 | 138707 | 154879
9 | 34:25.05 | 3:50.42 | 154880 | 172171
10 | 38:15.47 | 5:05.40 | 172172 | 195086
11 | 43:21.12 | 2:59.18 | 195087 | 208529
12 | 46:20.30 | 5:44.32 | 208530 | 234361
Range status and errors
Selected range
Filename H:\La Vienta - Forgotten Romance (1996)\La Vienta - Forgotten Romance (1996).wav
Peak level 100.0 %
Range quality 100.0 %
Copy CRC 6BE00C1F
Copy OK
No errors occurred
AccurateRip summary
Track 1 accurately ripped (confidence 2) [19A10446]
Track 2 accurately ripped (confidence 2) [E2FC5BE8]
Track 3 accurately ripped (confidence 2) [88B6E745]
Track 4 accurately ripped (confidence 2) [430879F7]
Track 5 accurately ripped (confidence 2) [77E0EEF6]
Track 6 accurately ripped (confidence 2) [0A422A73]
Track 7 accurately ripped (confidence 2) [A0767B67]
Track 8 accurately ripped (confidence 2) [607E7DEB]
Track 9 accurately ripped (confidence 2) [CC34A892]
Track 10 accurately ripped (confidence 2) [D68C811A]
Track 11 accurately ripped (confidence 2) [E563138B]
Track 12 accurately ripped (confidence 2) [DDE5F5C8]
All tracks accurately ripped
End of status report
 
Отчет auCDtest
auCDtect: CD records authenticity detector, version 0.8.2
Copyright (c) 2004 Oleg Berngardt. All rights reserved.
Copyright (c) 2004 Alexander Djourik. All rights reserved.
------------------------------------------------------------
Processing file: [La Vienta - Forgotten Romance (1996).wav]
Data analysis: [100%]
------------------------------------------------------------
This track looks like CDDA with probability 100%
 
Отчет WavCRC
EAC wavcrc32 v0.22 (c) ]DichlofoS[ Systems, 2007
thanx to: BakLAN, siro and other beta-testers/contributors!
file opened ok
RIFF header checked ok
please wait while couning checksums...
processing 137804856 samples...
file closed ok
--- used in EAC:
generic: grabbing, "no use..." off [all bytes] : 6BE00C1F.
generic: grabbing, "no use..." on [word nulsamples l/r] : 3495606A.
waveditor [word nulsamples l] : D5DBE80C.
--- no used in EAC, only for reference:
byte ignore zeros : CB6A9F95.
dword nulsamples : 1B55707F.
---
time elapsed: 23703 ms
Все диски фирменные, но особенно качественно звучит диск “Night Dance”.
Приятного прослушивания!
12:04
402
Нет комментариев. Ваш будет первым!