Поиск

1993 Sasi Shalom's Modus - The Way I See It {Jazzis 1020}

1993 Sasi Shalom's Modus - The Way I See It {Jazzis 1020}
Стили:
Треклист:
Серия: Jazz In Israel Vol. 20
Страна: Israel
Дата записи: 1992
Дата выпуска: 1993-05-25
Производитель диска, номер: Jazzis Records 1020
Аудио кодек: FLAC
Тип рипа: (tracks + .cue)
Битрейт аудио: lossless
Включает: Full artwork
Продолжительность: 74.56
Источник: Musicgate
Треклист:
01. The Way I See It 8.13
02. Take A Risk 5.27
03. Ozymandias 5.43
04. Decisions 5.49
05. Struggle 8.15
06. Luniwaz 6.07
07. Old Kingdom 4.01
08. Refuge 6.46
09. Vicious Circle 6.26
10. Spring Dream 6.45
11. Mouse Game 4.00
12. Epilogue 6.48
 
Booklet
Just a few days after JAZZIS Records released the debut "Modus' album in 1990, Sasi Shalom left Israel to pursue his academic studies in Boston. All I had left were fond memories of a young and eager jazz musician and of course the record, which I decided to release mainly as a credit to Sasi's talent as a composer. We kept in touch and finally a decision was made to bring over to Israel the current version of "Modus", comprising of musicians who were Sasi's fellow students.
The recording sessions were a delight, mainly due to the amazing level of musicianship displayed by the participants, but the greatest surprise was how much progress Sasi managed to accomplish, both as a composer and a player, in such short time. There is no doubt in my mind that today he's the best Israeli jazz composer. His enchanting and mesmerizing compositions are truly outstanding.
This record is full of inspiring moments and electrifying solos, great ensemble playing and superb arrangements, all this in addition to being a perfect presentation of the Sasi Shalom's Songbook. I hope to share the pleasures of this record with many more jazz lovers worldwide.
Adam Baruch May 1p93
 
 
cdbaby.com
Sasi Shalom composes, arranges and performs his own stylized jazz rock. A rich spectrum of texture and mood, his music is a rhythmical montage of his own middle eastern background with influences from the Weather Report and Debussy. Actually, it is difficult to classify Shalom's music; he wants to excite his audience with the fusion of many different styles. "I'd like to reach a diverse crowd with my music, not necessarily just a typical jazz audience."
In a small town in the Israeli desert, Sasi Shalom began playing classical piano at the age of four. His mentor was a Berklee alumnus who inspired Sasi to come to the States, where he now studies jazz piano performance and music synthesis at Berklee College of Music.
At age 22, Sasi's Israeli band, Modus, recorded a CD (Jazzis Records) and toured Israel (Red Sea Jazz Festival, The Saddle '90 Jazz Festival, and clubs throughout the country), both were received with critical acclaim from the Israeli press and audiences.
In the summer of 1992, Sasi recorded a second CD entitled Sasi Shalom's Modus "The Way I See It" also on Jazzis Records. The Israeli record company sponsored an Israeli tour which included a group of Boston musicians who traveled to the middle east to record and tour with Sasi. This multinational group was met with enthusiastic response from the press, and in a very short time, managed to etch a place in the Israeli jazz scene.
Sasi Shalom hopes that his work will reach as many people as possible without compromising the quality of the music, and he plans to continue to express his melodic messages through a unique array of "colors."
 
 
EAC log
Exact Audio Copy V0.99 prebeta 4 from 23. January 2008
EAC extraction logfile from 10. January 2010, 0:20
Sasi Shalom's Modus / The Way I See It
Used drive  : HL-DT-STDVD-RAM GH22NP20   Adapter: 0  ID: 0
Read mode               : Secure
Utilize accurate stream : Yes
Defeat audio cache      : Yes
Make use of C2 pointers : No
Read offset correction                      : 102
Overread into Lead-In and Lead-Out          : No
Fill up missing offset samples with silence : Yes
Delete leading and trailing silent blocks   : No
Null samples used in CRC calculations       : Yes
Used interface                              : Installed external ASPI interface
Gap handling                                : Appended to previous track
Used output format              : User Defined Encoder
Selected bitrate                : 320 kBit/s
Quality                         : High
Add ID3 tag                     : No
Command line compressor         : C:\Program Files\Exact Audio Copy\Flac\flac.exe
Additional command line options : -V -8 -T "artist=%a" -T "title=%t" -T "album=%g" -T "date=%y" -T "tracknumber=%n" -T "genre=%m" %s
TOC of the extracted CD
     Track |   Start  |  Length  | Start sector | End sector
    ---------------------------------------------------------
        1  |  0:00.00 |  8:22.50 |         0    |    37699
        2  |  8:22.50 |  5:30.00 |     37700    |    62449
        3  | 13:52.50 |  5:45.00 |     62450    |    88324
        4  | 19:37.50 |  5:52.00 |     88325    |   114724
        5  | 25:29.50 |  8:17.00 |    114725    |   151999
        6  | 33:46.50 |  6:10.00 |    152000    |   179749
        7  | 39:56.50 |  4:04.00 |    179750    |   198049
        8  | 44:00.50 |  6:49.00 |    198050    |   228724
        9  | 50:49.50 |  6:29.00 |    228725    |   257899
       10  | 57:18.50 |  6:48.00 |    257900    |   288499
       11  | 64:06.50 |  4:03.00 |    288500    |   306724
       12  | 68:09.50 |  6:48.25 |    306725    |   337349
Track  1
     Filename D:\music\Musicgate's rips\Sasi Shalom's Modus - The Way I See It (1993)\01 - The Way I See It.wav
     Pre-gap length  0:00:02.00
     Peak level 99.0 %
     Track quality 100.0 %
     Test CRC D4A36418
     Copy CRC D4A36418
     Track not present in AccurateRip database
     Copy OK
Track  2
     Filename D:\music\Musicgate's rips\Sasi Shalom's Modus - The Way I See It (1993)\02 - Take A Risk.wav
     Pre-gap length  0:00:02.66
     Peak level 99.0 %
     Track quality 100.0 %
     Test CRC D089E97B
     Copy CRC D089E97B
     Track not present in AccurateRip database
     Copy OK
Track  3
     Filename D:\music\Musicgate's rips\Sasi Shalom's Modus - The Way I See It (1993)\03 - Ozymandias.wav
     Pre-gap length  0:00:02.66
     Peak level 91.3 %
     Track quality 99.9 %
     Test CRC A6439EF2
     Copy CRC A6439EF2
     Track not present in AccurateRip database
     Copy OK
Track  4
     Filename D:\music\Musicgate's rips\Sasi Shalom's Modus - The Way I See It (1993)\04 - Decisions.wav
     Pre-gap length  0:00:01.66
     Peak level 99.0 %
     Track quality 99.9 %
     Test CRC 8E2F34DF
     Copy CRC 8E2F34DF
     Track not present in AccurateRip database
     Copy OK
Track  5
     Filename D:\music\Musicgate's rips\Sasi Shalom's Modus - The Way I See It (1993)\05 - Struggle.wav
     Pre-gap length  0:00:02.66
     Peak level 99.0 %
     Track quality 100.0 %
     Test CRC C31C99C4
     Copy CRC C31C99C4
     Track not present in AccurateRip database
     Copy OK
Track  6
     Filename D:\music\Musicgate's rips\Sasi Shalom's Modus - The Way I See It (1993)\06 - Luniwaz.wav
     Pre-gap length  0:00:01.66
     Suspicious position 0:02:02 - 0:02:03
     Peak level 99.1 %
     Track quality 99.3 %
     Test CRC 6E0BF5B6
     Copy CRC 7953C458
     Track not present in AccurateRip database
     Copy finished
Track  7
     Filename D:\music\Musicgate's rips\Sasi Shalom's Modus - The Way I See It (1993)\07 - Old Kingdom.wav
     Pre-gap length  0:00:02.66
     Peak level 80.2 %
     Track quality 100.0 %
     Test CRC AEA979C8
     Copy CRC AEA979C8
     Track not present in AccurateRip database
     Copy OK
Track  8
     Filename D:\music\Musicgate's rips\Sasi Shalom's Modus - The Way I See It (1993)\08 - Refuge.wav
     Pre-gap length  0:00:02.66
     Peak level 99.0 %
     Track quality 100.0 %
     Test CRC D89E6A24
     Copy CRC D89E6A24
     Track not present in AccurateRip database
     Copy OK
Track  9
     Filename D:\music\Musicgate's rips\Sasi Shalom's Modus - The Way I See It (1993)\09 - Vicious Circle.wav
     Pre-gap length  0:00:02.66
     Peak level 97.3 %
     Track quality 100.0 %
     Test CRC 179A11A7
     Copy CRC 179A11A7
     Track not present in AccurateRip database
     Copy OK
Track 10
     Filename D:\music\Musicgate's rips\Sasi Shalom's Modus - The Way I See It (1993)\10 - Spring Dream.wav
     Pre-gap length  0:00:02.66
     Peak level 99.0 %
     Track quality 100.0 %
     Test CRC 69B1E110
     Copy CRC 69B1E110
     Track not present in AccurateRip database
     Copy OK
Track 11
     Filename D:\music\Musicgate's rips\Sasi Shalom's Modus - The Way I See It (1993)\11 - Mouse Game.wav
     Pre-gap length  0:00:02.66
     Peak level 98.9 %
     Track quality 100.0 %
     Test CRC 46F28E15
     Copy CRC 46F28E15
     Track not present in AccurateRip database
     Copy OK
Track 12
     Filename D:\music\Musicgate's rips\Sasi Shalom's Modus - The Way I See It (1993)\12 - Epilogue.wav
     Pre-gap length  0:00:02.66
     Peak level 99.0 %
     Track quality 100.0 %
     Test CRC EE85CB2A
     Copy CRC EE85CB2A
     Track not present in AccurateRip database
     Copy OK
None of the tracks are present in the AccurateRip database
There were errors
End of status report
 
CUE
REM GENRE Fusion
REM DATE 1993
REM DISCID 9F11920C
REM COMMENT "ExactAudioCopy v0.99pb4"
PERFORMER "Sasi Shalom's Modus"
TITLE "The Way I See It"
FILE "Range.wav" WAVE
  TRACK 01 AUDIO
    TITLE "The Way I See It"
    PERFORMER "Sasi Shalom's Modus"
    INDEX 01 00:00:00
  TRACK 02 AUDIO
    TITLE "Take A Risk"
    PERFORMER "Sasi Shalom's Modus"
    INDEX 00 08:20:00
    INDEX 01 08:22:50
  TRACK 03 AUDIO
    TITLE "Ozymandias"
    PERFORMER "Sasi Shalom's Modus"
    INDEX 00 13:50:00
    INDEX 01 13:52:50
  TRACK 04 AUDIO
    TITLE "Decisions"
    PERFORMER "Sasi Shalom's Modus"
    INDEX 00 19:36:00
    INDEX 01 19:37:50
  TRACK 05 AUDIO
    TITLE "Struggle"
    PERFORMER "Sasi Shalom's Modus"
    INDEX 00 25:27:00
    INDEX 01 25:29:50
  TRACK 06 AUDIO
    TITLE "Luniwaz"
    PERFORMER "Sasi Shalom's Modus"
    INDEX 00 33:45:00
    INDEX 01 33:46:50
  TRACK 07 AUDIO
    TITLE "Old Kingdom"
    PERFORMER "Sasi Shalom's Modus"
    INDEX 00 39:54:00
    INDEX 01 39:56:50
  TRACK 08 AUDIO
    TITLE "Refuge"
    PERFORMER "Sasi Shalom's Modus"
    INDEX 00 43:58:00
    INDEX 01 44:00:50
  TRACK 09 AUDIO
    TITLE "Vicious Circle"
    PERFORMER "Sasi Shalom's Modus"
    INDEX 00 50:47:00
    INDEX 01 50:49:50
  TRACK 10 AUDIO
    TITLE "Spring Dream"
    PERFORMER "Sasi Shalom's Modus"
    INDEX 00 57:16:00
    INDEX 01 57:18:50
  TRACK 11 AUDIO
    TITLE "Mouse Game"
    PERFORMER "Sasi Shalom's Modus"
    INDEX 00 64:04:00
    INDEX 01 64:06:50
  TRACK 12 AUDIO
    TITLE "Epilogue"
    PERFORMER "Sasi Shalom's Modus"
    INDEX 00 68:07:00
    INDEX 01 68:09:50
Состав:
  • Sasi Shalom — Keyboards (on all tracks), Percussion (on 5 & 7)
  • Matt Renzi — Tenor Saxophone
  • Ittai Flascher — Guitar (on 4, 6 & 12 only)
  • Adam Dorn — Bass Guitar
  • Bertram Lehmann — Drums (on all tracks), Percussion (on 2 & 5)
  • Rami Shuler — Congas & Percussion (on 2, 4, 5,6, 7,10 & 12)
  • Safa'a Ammar — Vocals (on 7)

on 3 only

  • Sasi Shalom — Keyboards
  • Carolina Brandes — Vocals
  • Rick Peckham — Guitar
  • Yoral Oron — Bass Guitar
  • Abe Laboriel, Jr. — Drums
  • Produced By Adam Baruch
По всем вопросам пишите личное сообщение пользователю M0p94ok.
11:03
509
Нет комментариев. Ваш будет первым!