Поиск

(Latin Jazz) Herbie Mann - America/Brazil - 1997, FLAC (tracks+.cue), lossless

Треклист:
Herbie Mann - America/Brazil
Жанр: Latin Jazz
Год выпуска диска: 1997
Производитель диска: USA. Lightyear
Аудио кодек: FLAC
Тип рипа: tracks+.cue
Битрейт аудио: lossless
Продолжительность: 62:58
Трэклист:
1 Keep the Spirits Singing Levy 10:52
2 Summertime Gershwin, Heyward 8:34
3 Peri's Scope Evans 6:38
4 Baghdad/Candle Dance Mann 2:06
5 Ovo Pascoal, Vandre 7:30
6 All Blues Davis 9:46
7 America/Brasil Lins, Martins 17:16
Доп. информация: Bruce Dunlap- guitar
Eddie Comes- acoustic bass
Larry Granadier- acoustic bass
Victor Lewis- drums
Romero Lubambo- guitar
Ray Mantilla- percussion
Nilson Matta- acoustic bass
Olatunji- percussion
Jim Pugh- trombone
Edward Simon- piano
Paul Socolov- bass
Mark Soskin- piano
Terel Stafford- trumpet
Диск фирменный из своей коллекции со всеми сканами
 
Отчёт EAC
Exact Audio Copy V0.99 prebeta 5 from 4. May 2009
Отчёт EAC об извлечении, выполненном 21. января 2010, 11:47
Herbie Mann / America/Brazil
Дисковод: _NEC DVD_RW ND-4570A Adapter: 0 ID: 0
Режим чтения : Достоверность
Использование точного потока : Да
Отключение кэша аудио : Да
Использование указателей C2 : Нет
Коррекция смещения при чтении : 48
Способность читать области Lead-in и Lead-out : Нет
Заполнение пропущенных сэмплов тишиной : Да
Удаление блоков с тишиной в начале и конце : Нет
При вычислениях CRC использовались нулевые сэмплы : Да
Интерфейс : Встроенный Win32-интерфейс для Win NT/2000
Обработка зазоров : Добавлено к предыдущему треку
Выходной формат : Пользовательский кодировщик
Выбранный битрейт : 128 kBit/s
Качество : Высокий
Добавление ID3-тэга : Нет
Утилита сжатия : D:\Закачка\Программы\Exact Audio Copy\FLAC\FLAC.EXE
Дополнительные параметры : -8 -V -T "ARTIST=%a" -T "TITLE=%t" -T "ALBUM=%g" -T "DATE=%y" -T "TRACKNUMBER=%n" -T "GENRE=%m" -T "COMMENT=EAC FLAC -8" %s
TOC извлечённого CD
Трек | Старт | Длительность | Начальный сектор | Конечный сектор
---------------------------------------------------------------------
1 | 0:00.32 | 10:51.03 | 32 | 48859
2 | 10:51.35 | 8:34.45 | 48860 | 87454
3 | 19:26.05 | 6:38.00 | 87455 | 117304
4 | 26:04.05 | 2:05.35 | 117305 | 126714
5 | 28:09.40 | 7:29.42 | 126715 | 160431
6 | 35:39.07 | 9:45.53 | 160432 | 204359
7 | 45:24.60 | 17:34.05 | 204360 | 283414
Трек 1
Имя файла D:\Закачка\Программы\Exact Audio Copy\Flac\Herbie Mann - AmericaBrazil\ 01. Herbie Mann – Keep the Spirits Singing .wav
Длина предзазора 0:00:02.42
Пиковый уровень 98.8 %
Качество трека 100.0 %
CRC теста ED519B6D
CRC копии ED519B6D
Копирование... OK
Трек 2
Имя файла D:\Закачка\Программы\Exact Audio Copy\Flac\Herbie Mann - AmericaBrazil\ 02. Herbie Mann – Summertime .wav
Длина предзазора 0:00:06.93
Пиковый уровень 98.8 %
Качество трека 100.0 %
CRC теста 1122F08B
CRC копии 1122F08B
Копирование... OK
Трек 3
Имя файла D:\Закачка\Программы\Exact Audio Copy\Flac\Herbie Mann - AmericaBrazil\ 03. Herbie Mann – Peri's Scope .wav
Длина предзазора 0:00:10.70
Пиковый уровень 98.8 %
Качество трека 100.0 %
CRC теста 0390A035
CRC копии 0390A035
Копирование... OK
Трек 4
Имя файла D:\Закачка\Программы\Exact Audio Copy\Flac\Herbie Mann - AmericaBrazil\ 04. Herbie Mann – Baghdad,Candle Dance .wav
Длина предзазора 0:00:04.93
Пиковый уровень 98.8 %
Качество трека 100.0 %
CRC теста F7E69437
CRC копии F7E69437
Копирование... OK
Трек 5
Имя файла D:\Закачка\Программы\Exact Audio Copy\Flac\Herbie Mann - AmericaBrazil\ 05. Herbie Mann – Ovo .wav
Пиковый уровень 98.8 %
Качество трека 100.0 %
CRC теста FDABC9FC
CRC копии FDABC9FC
Копирование... OK
Трек 6
Имя файла D:\Закачка\Программы\Exact Audio Copy\Flac\Herbie Mann - AmericaBrazil\ 06. Herbie Mann – All Blues .wav
Длина предзазора 0:00:11.02
Пиковый уровень 98.8 %
Качество трека 100.0 %
CRC теста 190FA2C1
CRC копии 190FA2C1
Копирование... OK
Трек 7
Имя файла D:\Закачка\Программы\Exact Audio Copy\Flac\Herbie Mann - AmericaBrazil\ 07. Herbie Mann – America,Brazil .wav
Длина предзазора 0:00:06.93
Пиковый уровень 98.8 %
Качество трека 100.0 %
CRC теста 5F5B5DE9
CRC копии 5F5B5DE9
Копирование... OK
Ошибок не произошло
Конец отчёта
Download available for power users only.
11:03
296
Нет комментариев. Ваш будет первым!