Поиск

(World Fusion / Contemporary) Ibrahim Maalouf - Diachronism [2 CD] - 2009, FLAC (tracks+.cue), lossless

(World Fusion / Contemporary) Ibrahim Maalouf - Diachronism [2 CD] - 2009, FLAC (tracks+.cue), lossless
Треклист:
Ibrahim Maalouf - Diachronism
Жанр: World Fusion / Contemporary
Год выпуска : 2009
Лейбл: Mis'Ter Productions
Аудио кодек: FLAC
Тип рипа: tracks+.cue
Битрейт аудио: lossless
Продолжительность: 00:31:14 + 00:24:13
Рип: dtromp - What CD


CD 1
01. Pouh Hia (5:15)
02. NAGA (Feat. Adnan Jubran) (5:56)
03. Ya Ha La (6:15)
04. Trumpet - Saz Improvisation (Feat. Bijan Chemirani) (7:20)
05. Hyu Man (6:29)




CD 2
01. Intro (old radio of a Lebanese mountain) (0:52)
02. Esse Emme (4:51)
03. Intro (winners of 2007-2009 tour) (1:03)
04. BIZARRE (Feat. Matthieu Chedid) (3:21)
05. MAKE CE (Feat. Lollibob) (5:58)
06. Trumpet - Piano Improvisation (Feat. Jacky Terrasson) (3:37)
07. SOUMA HIA (Feat. Jacky Terrasson) (4:32)

 
EAC для CD1
Exact Audio Copy V0.99 prebeta 5 from 4. May 2009
EAC extraction logfile from 14. January 2010, 15:54
Ibrahim Maalouf / DIACHRONISM - Disoriental
Used drive : PLEXTOR DVDR PX-860A Adapter: 0 ID: 0
Read mode : Secure
Utilize accurate stream : Yes
Defeat audio cache : Yes
Make use of C2 pointers : No
Read offset correction : 96
Overread into Lead-In and Lead-Out : No
Fill up missing offset samples with silence : Yes
Delete leading and trailing silent blocks : No
Null samples used in CRC calculations : Yes
Used interface : Native Win32 interface for Win NT & 2000
Gap handling : Appended to previous track
Used output format : User Defined Encoder
Selected bitrate : 768 kBit/s
Quality : High
Add ID3 tag : No
Command line compressor : C:\Program Files\Exact Audio Copy\Flac\flac.exe
Additional command line options : -8 -V -T "ARTIST=%a" -T "TITLE=%t" -T "ALBUM=%g" -T "DATE=%y" -T "TRACKNUMBER=%n" -T "TOTALTRACKS=%x" -T "GENRE=%m" -T "ALBUM ARTIST=%v" -T "ALBUMARTIST=%v" -T "COMMENT=EAC V0.99 prebeta 5, Secure Mode, Test & Copy, Accurat
TOC of the extracted CD
Track | Start | Length | Start sector | End sector
---------------------------------------------------------
1 | 0:00.00 | 5:15.20 | 0 | 23644
2 | 5:15.20 | 5:55.59 | 23645 | 50328
3 | 11:11.04 | 6:14.43 | 50329 | 78421
4 | 17:25.47 | 7:19.71 | 78422 | 111417
5 | 24:45.43 | 6:28.54 | 111418 | 140571
Track 1
Filename N:\DL\Ibrahim Maalouf - DIACHRONISM - Disoriental (2009) [FLAC]\01 - Pouh Hia.wav
Pre-gap length 0:00:02.00
Peak level 99.8 %
Track quality 100.0 %
Test CRC C03EE586
Copy CRC C03EE586
Track not present in AccurateRip database
Copy OK
Track 2
Filename N:\DL\Ibrahim Maalouf - DIACHRONISM - Disoriental (2009) [FLAC]\02 - NAGA (Feat. Adnan Jubran).wav
Peak level 99.8 %
Track quality 100.0 %
Test CRC 1946C8CB
Copy CRC 1946C8CB
Track not present in AccurateRip database
Copy OK
Track 3
Filename N:\DL\Ibrahim Maalouf - DIACHRONISM - Disoriental (2009) [FLAC]\03 - Ya Ha La.wav
Peak level 99.8 %
Track quality 99.9 %
Test CRC AD80C006
Copy CRC AD80C006
Track not present in AccurateRip database
Copy OK
Track 4
Filename N:\DL\Ibrahim Maalouf - DIACHRONISM - Disoriental (2009) [FLAC]\04 - Trumpet - Saz Improvisation (Feat. Bijan Chemirani).wav
Peak level 99.8 %
Track quality 99.9 %
Test CRC 0D0DAC55
Copy CRC 0D0DAC55
Track not present in AccurateRip database
Copy OK
Track 5
Filename N:\DL\Ibrahim Maalouf - DIACHRONISM - Disoriental (2009) [FLAC]\05 - Hyu Man.wav
Peak level 99.8 %
Track quality 100.0 %
Test CRC F5553C98
Copy CRC F5553C98
Track not present in AccurateRip database
Copy OK
None of the tracks are present in the AccurateRip database
No errors occurred
End of status report
 
CUE для CD1
REM GENRE Jazz
REM DATE 2009
REM DISCID 3D075205
REM COMMENT "ExactAudioCopy v0.99pb5"
PERFORMER "Ibrahim Maalouf"
TITLE "DIACHRONISM - Disoriental"
FILE "01 - Pouh Hia.flac" WAVE
TRACK 01 AUDIO
TITLE "Pouh Hia"
PERFORMER "Ibrahim Maalouf"
FLAGS DCP
INDEX 01 00:00:00
FILE "02 - NAGA (Feat. Adnan Jubran).flac" WAVE
TRACK 02 AUDIO
TITLE "NAGA (Feat. Adnan Jubran)"
PERFORMER "Ibrahim Maalouf"
FLAGS DCP
INDEX 01 00:00:00
FILE "03 - Ya Ha La.flac" WAVE
TRACK 03 AUDIO
TITLE "Ya Ha La"
PERFORMER "Ibrahim Maalouf"
FLAGS DCP
INDEX 01 00:00:00
FILE "04 - Trumpet - Saz Improvisation (Feat. Bijan Chemirani).flac" WAVE
TRACK 04 AUDIO
TITLE "Trumpet - Saz Improvisation (Feat. Bijan Chemirani)"
PERFORMER "Ibrahim Maalouf"
FLAGS DCP
INDEX 01 00:00:00
FILE "05 - Hyu Man.flac" WAVE
TRACK 05 AUDIO
TITLE "Hyu Man "
PERFORMER "Ibrahim Maalouf"
FLAGS DCP
INDEX 01 00:00:00
 
EAC для CD2
Exact Audio Copy V0.99 prebeta 5 from 4. May 2009
EAC extraction logfile from 14. January 2010, 18:13
Ibrahim Maalouf / DIACHRONISM - Paradoxidental
Used drive : PLEXTOR DVDR PX-860A Adapter: 0 ID: 0
Read mode : Secure
Utilize accurate stream : Yes
Defeat audio cache : Yes
Make use of C2 pointers : No
Read offset correction : 96
Overread into Lead-In and Lead-Out : No
Fill up missing offset samples with silence : Yes
Delete leading and trailing silent blocks : No
Null samples used in CRC calculations : Yes
Used interface : Native Win32 interface for Win NT & 2000
Gap handling : Appended to previous track
Used output format : User Defined Encoder
Selected bitrate : 768 kBit/s
Quality : High
Add ID3 tag : No
Command line compressor : C:\Program Files\Exact Audio Copy\Flac\flac.exe
Additional command line options : -8 -V -T "ARTIST=%a" -T "TITLE=%t" -T "ALBUM=%g" -T "DATE=%y" -T "TRACKNUMBER=%n" -T "TOTALTRACKS=%x" -T "GENRE=%m" -T "ALBUM ARTIST=%v" -T "ALBUMARTIST=%v" -T "COMMENT=EAC V0.99 prebeta 5, Secure Mode, Test & Copy, Accurat
TOC of the extracted CD
Track | Start | Length | Start sector | End sector
---------------------------------------------------------
1 | 0:00.00 | 0:51.70 | 0 | 3894
2 | 0:51.70 | 4:50.42 | 3895 | 25686
3 | 5:42.37 | 1:02.66 | 25687 | 30402
4 | 6:45.28 | 3:21.18 | 30403 | 45495
5 | 10:06.46 | 5:58.17 | 45496 | 72362
6 | 16:04.63 | 3:36.66 | 72363 | 88628
7 | 19:41.54 | 4:32.03 | 88629 | 109031
Track 1
Filename N:\DL\Ibrahim Maalouf - DIACHRONISM - Disoriental (2009) [FLAC]\CD2\01 - Intro (old radio of a Lebanese mountain).wav
Pre-gap length 0:00:02.00
Peak level 99.8 %
Track quality 100.0 %
Test CRC 96C9D9B9
Copy CRC 96C9D9B9
Track not present in AccurateRip database
Copy OK
Track 2
Filename N:\DL\Ibrahim Maalouf - DIACHRONISM - Disoriental (2009) [FLAC]\CD2\02 - Esse Emme.wav
Peak level 99.8 %
Track quality 99.9 %
Test CRC 8218D30D
Copy CRC 8218D30D
Track not present in AccurateRip database
Copy OK
Track 3
Filename N:\DL\Ibrahim Maalouf - DIACHRONISM - Disoriental (2009) [FLAC]\CD2\03 - Intro (winners of 2007-2009 tour).wav
Peak level 75.3 %
Track quality 100.0 %
Test CRC 2445AB18
Copy CRC 2445AB18
Track not present in AccurateRip database
Copy OK
Track 4
Filename N:\DL\Ibrahim Maalouf - DIACHRONISM - Disoriental (2009) [FLAC]\CD2\04 - BIZARRE (Feat. Matthieu Chedid).wav
Peak level 99.8 %
Track quality 99.9 %
Test CRC F90CC2CF
Copy CRC F90CC2CF
Track not present in AccurateRip database
Copy OK
Track 5
Filename N:\DL\Ibrahim Maalouf - DIACHRONISM - Disoriental (2009) [FLAC]\CD2\05 - MAKE CE (Feat. Lollibob).wav
Peak level 99.8 %
Track quality 100.0 %
Test CRC CC50A082
Copy CRC CC50A082
Track not present in AccurateRip database
Copy OK
Track 6
Filename N:\DL\Ibrahim Maalouf - DIACHRONISM - Disoriental (2009) [FLAC]\CD2\06 - Trumpet - Piano Improvisation (Feat. Jacky Terrasson).wav
Peak level 96.0 %
Track quality 100.0 %
Test CRC 2047C1F0
Copy CRC 2047C1F0
Track not present in AccurateRip database
Copy OK
Track 7
Filename N:\DL\Ibrahim Maalouf - DIACHRONISM - Disoriental (2009) [FLAC]\CD2\07 - SOUMA HIA (Feat. Jacky Terrasson).wav
Peak level 99.8 %
Track quality 100.0 %
Test CRC B92A71E1
Copy CRC B92A71E1
Track not present in AccurateRip database
Copy OK
None of the tracks are present in the AccurateRip database
No errors occurred
End of status report
 
CUE для CD2
REM GENRE Jazz
REM DATE 2009
REM DISCID 5005AD07
REM COMMENT "ExactAudioCopy v0.99pb5"
PERFORMER "Ibrahim Maalouf"
TITLE "DIACHRONISM - Paradoxidental"
FILE "01 - Intro (old radio of a Lebanese mountain).wav" WAVE
TRACK 01 AUDIO
TITLE "Intro (old radio of a Lebanese mountain)"
PERFORMER "Ibrahim Maalouf"
FLAGS DCP
INDEX 01 00:00:00
FILE "02 - Esse Emme.wav" WAVE
TRACK 02 AUDIO
TITLE "Esse Emme"
PERFORMER "Ibrahim Maalouf"
FLAGS DCP
INDEX 01 00:00:00
FILE "03 - Intro (winners of 2007-2009 tour).wav" WAVE
TRACK 03 AUDIO
TITLE "Intro (winners of 2007-2009 tour)"
PERFORMER "Ibrahim Maalouf"
FLAGS DCP
INDEX 01 00:00:00
FILE "04 - BIZARRE (Feat. Matthieu Chedid).wav" WAVE
TRACK 04 AUDIO
TITLE "BIZARRE (Feat. Matthieu Chedid)"
PERFORMER "Ibrahim Maalouf"
FLAGS DCP
INDEX 01 00:00:00
FILE "05 - MAKE CE (Feat. Lollibob).wav" WAVE
TRACK 05 AUDIO
TITLE "MAKE CE (Feat. Lollibob)"
PERFORMER "Ibrahim Maalouf"
FLAGS DCP
INDEX 01 00:00:00
FILE "06 - Trumpet - Piano Improvisation (Feat. Jacky Terrasson).wav" WAVE
TRACK 06 AUDIO
TITLE "Trumpet - Piano Improvisation (Feat. Jacky Terrasson)"
PERFORMER "Ibrahim Maalouf"
FLAGS DCP
INDEX 01 00:00:00
FILE "07 - SOUMA HIA (Feat. Jacky Terrasson).wav" WAVE
TRACK 07 AUDIO
TITLE "SOUMA HIA (Feat. Jacky Terrasson)"
PERFORMER "Ibrahim Maalouf"
FLAGS DCP
INDEX 01 00:00:00
 
Audiochecker для CD1 и CD2
Started at: понедельник, 25. 01. 2010. - 11:10.58
5 files found
1 -===- C:\Downloads\Music\Джаз\Ibrahim Maalouf - Diachronism - 2009\CD1\01 - Pouh Hia.flac
Extracted successfully
Conclusion: This track looks like CDDA with probability 100%
Tempfile successfully deleted.
2 -===- C:\Downloads\Music\Джаз\Ibrahim Maalouf - Diachronism - 2009\CD1\02 - NAGA (Feat. Adnan Jubran).flac
Extracted successfully
Conclusion: This track looks like CDDA with probability 100%
Tempfile successfully deleted.
3 -===- C:\Downloads\Music\Джаз\Ibrahim Maalouf - Diachronism - 2009\CD1\03 - Ya Ha La.flac
Extracted successfully
Conclusion: This track looks like CDDA with probability 100%
Tempfile successfully deleted.
4 -===- C:\Downloads\Music\Джаз\Ibrahim Maalouf - Diachronism - 2009\CD1\04 - Trumpet - Saz Improvisation (Feat. Bijan Chemirani).flac
Extracted successfully
Conclusion: This track looks like CDDA with probability 100%
Tempfile successfully deleted.
5 -===- C:\Downloads\Music\Джаз\Ibrahim Maalouf - Diachronism - 2009\CD1\05 - Hyu Man.flac
Extracted successfully
Conclusion: This track looks like CDDA with probability 100%
Tempfile successfully deleted.
Finished at: понедельник, 25. 01. 2010. - 11:17.10 (operation time: 0:06.11)
-----------------------------------------------------------
Started at: понедельник, 25. 01. 2010. - 11:17.32
7 files found
1 -===- C:\Downloads\Music\Джаз\Ibrahim Maalouf - Diachronism - 2009\CD2\01 - Intro (old radio of a Lebanese mountain).flac
Extracted successfully
Conclusion: This track looks like CDDA with probability 100%
Tempfile successfully deleted.
2 -===- C:\Downloads\Music\Джаз\Ibrahim Maalouf - Diachronism - 2009\CD2\02 - Esse Emme.flac
Extracted successfully
Conclusion: This track looks like CDDA with probability 100%
Tempfile successfully deleted.
3 -===- C:\Downloads\Music\Джаз\Ibrahim Maalouf - Diachronism - 2009\CD2\03 - Intro (winners of 2007-2009 tour).flac
Extracted successfully
Conclusion: This track looks like CDDA with probability 100%
Tempfile successfully deleted.
4 -===- C:\Downloads\Music\Джаз\Ibrahim Maalouf - Diachronism - 2009\CD2\04 - BIZARRE (Feat. Matthieu Chedid).flac
Extracted successfully
Conclusion: This track looks like CDDA with probability 100%
Tempfile successfully deleted.
5 -===- C:\Downloads\Music\Джаз\Ibrahim Maalouf - Diachronism - 2009\CD2\05 - MAKE CE (Feat. Lollibob).flac
Extracted successfully
Conclusion: This track looks like CDDA with probability 100%
Tempfile successfully deleted.
6 -===- C:\Downloads\Music\Джаз\Ibrahim Maalouf - Diachronism - 2009\CD2\06 - Trumpet - Piano Improvisation (Feat. Jacky Terrasson).flac
Extracted successfully
Conclusion: This track looks like CDDA with probability 100%
Tempfile successfully deleted.
7 -===- C:\Downloads\Music\Джаз\Ibrahim Maalouf - Diachronism - 2009\CD2\07 - SOUMA HIA (Feat. Jacky Terrasson).flac
Extracted successfully
Conclusion: This track looks like CDDA with probability 100%
Tempfile successfully deleted.
Finished at: понедельник, 25. 01. 2010. - 11:22.20 (operation time: 0:04.47)
Download available for power users only.
11:06
365
Нет комментариев. Ваш будет первым!