Поиск

(Jazz) Herbie Mann - Memphis Underground - 1969. - 2002, FLAC (image+.cue+scans), lossless

(Jazz) Herbie Mann - Memphis Underground - 1969. - 2002, FLAC (image+.cue+scans), lossless
Треклист:
Herbie Mann - Memphis Underground - 1969.
Жанр: Crossover Jazz
Год выпуска диска: 2002
Производитель диска: Atlantic Records
Аудио кодек: FLAC
Тип рипа: image+.cue
Битрейт аудио: lossless
Продолжительность: 35:33
Трэклист:
1. "Memphis Underground" (Herbie Mann) — 7:07
2. "New Orleans" (Frank Guida, Joseph Royster) — 2:07
3. "Hold On, I'm Comin'" (Isaac Hayes, David Porter) — 8:52
4. "Chain of Fools" (Don Covay) — 10:42
5. "Battle Hymn of the Republic" (Traditional, arranged by Herbie Mann) — 7:12

Personnel
* Herbie Mann – flute
* Roy Ayers – vibes, conga on "Battle Hymn of the Republic"
* Larry Coryell – guitar
* Sonny Sharrock – guitar
* Miroslav Vitouš - "Fender bass" on "Hold On, I'm Comin'"
Доп. информация: http://en.wikipedia.org/wiki/Memphis_Underground
 
EAC
Exact Audio Copy V0.99 prebeta 4 from 23. January 2008
EAC extraction logfile from 22. January 2010, 19:26
Herbie Mann / Memphis Underground
Used drive : HL-DT-STDVD-RAM GSA-H30N Adapter: 2 ID: 1
Read mode : Secure
Utilize accurate stream : Yes
Defeat audio cache : Yes
Make use of C2 pointers : No
Read offset correction : 102
Overread into Lead-In and Lead-Out : No
Fill up missing offset samples with silence : Yes
Delete leading and trailing silent blocks : No
Null samples used in CRC calculations : Yes
Used interface : Installed external ASPI interface
Used output format : Internal WAV Routines
Sample format : 44.100 Hz; 16 Bit; Stereo
TOC of the extracted CD
Track | Start | Length | Start sector | End sector
---------------------------------------------------------
1 | 0:00.00 | 7:09.62 | 0 | 32236
2 | 7:09.62 | 2:08.00 | 32237 | 41836
3 | 9:17.62 | 8:57.00 | 41837 | 82111
4 | 18:14.62 | 10:44.00 | 82112 | 130411
5 | 28:58.62 | 7:14.25 | 130412 | 162986
Range status and errors
Selected range
Filename E:\Herbie Mann - Memphis Underground.wav
Peak level 99.9 %
Range quality 100.0 %
Test CRC 51915C3D
Copy CRC 51915C3D
Copy OK
No errors occurred
End of status report
Download available for power users only.
11:07
498
Нет комментариев. Ваш будет первым!